img image001 image001 image001 image001 image001 image001 image001 image001 image001 image001 image001 image001 image001 image001 image001

Planets Sun Sun Sun
Статистика раздачи
Автор: Nickolas3434 | Размер: 1.46 ГБ | Добавлен: 06 мар 2014
Раздают: 415    Качают: 78
Скачать торрент
Скачать торрент
Описание торрента

СообщениеДобавлено: 06 мар 2014 

Информация о фильме
Название: Полярный рейс
Год выхода: 2013
Жанр: Комедия, приключения
Режиссёр: Сергей Чекалов
В ролях: Егор Бероев, Юлия Снигирь, Дмитрий Нагиев, Татьяна Орлова, Анна Семенович, Михаил Тарабукин, Кирилл Жандаров, Юлия Куварзина, Поля Полякова, Юлия Галкина

О фильме: Иногда расстояние, карьера и работа разлучают людей навсегда. А по-настоящему родных - только на миг, сколько бы он не длился. Может случиться, что симпатичный пушистый амулет сведёт вместе героев и заставит одних проявить юмор, благородство, преданность и взаимопомощь, других - быть просто смешными, глупыми и опасными… Пройдя через разлуку, череду преград, испытаний и искушений, волшебство любви должно победить!



Выпущено: Wise Vision, Украина
Продолжительность: 01:28:09
Перевод: Не требуется
Язык: Русский

Файл
Качество: DVDRip (Исходник: DVD-5)
Видео: XviD, 720x320 (2.25:1), 25 кадр/с, 1918 Кбит/с
Аудио: Русский, Dolby AC3, 48000 Гц, 448 Кбит/с, 6 каналов (5.1)
Субтитры: Отсутствуют



Автор рипа - ivandubskoj

Общее
Полное имя : Polyarnyy.reys.2013.DVDRip.avi
Формат : AVI
Формат/Информация : Audio Video Interleave
Размер файла : 1,46 Гбайт
Продолжительность : 1 ч. 28 м.
Общий поток : 2374 Кбит/сек
Название фильма : Полярный рейс (2013) DVDRip
Жанр : Комедия, приключения
Дата записи : 05.03.2014
Программа кодирования : VirtualDubMod 1.5.10.3 (build 2550/release)
Библиотека кодирования : VirtualDubMod build 2550/release
Правообладатель : rip by ivandubskoj

Видео
Идентификатор : 0
Формат : MPEG-4 Visual
Профиль формата : Advanced Simple@L5
Параметр BVOP формата : 1
Параметр QPel формата : Нет
Параметр GMC формата : Без точки перехода
Параметр матрицы формата : Default (MPEG)
Идентификатор кодека : XVID
Идентификатор кодека/Подсказка : XviD
Продолжительность : 1 ч. 28 м.
Битрейт : 1918 Кбит/сек
Ширина : 720 пикселей
Высота : 320 пикселей
Соотношение сторон : 2,25:1
Частота кадров : 25,000 кадров/сек
Цветовое пространство : YUV
Субдискретизация насыщенности : 4:2:0
Битовая глубина : 8 бит
Тип развёртки : Прогрессивная
Метод сжатия : С потерями
Бит/(Пиксели*Кадры) : 0.333
Размер потока : 1,18 Гбайт (81%)
Библиотека кодирования : XviD 73

Аудио
Идентификатор : 1
Формат : AC-3
Формат/Информация : Audio Coding 3
Расширение режима : CM (complete main)
Параметр Endianness формата : Big
Идентификатор кодека : 2000
Продолжительность : 1 ч. 28 м.
Вид битрейта : Постоянный
Битрейт : 448 Кбит/сек
Каналы : 6 каналов
Расположение каналов : Front: L C R, Side: L R, LFE
Частота : 48,0 КГц
Битовая глубина : 16 бит
Метод сжатия : С потерями
Размер потока : 282 Мбайт (19%)
Выравнивание : Разделение по промежуткам
Продолжительность промежутка : 64 мс. (1,60 видеокадра)
Время предзагрузки промежутка : 500 мс.
Заголовок : Russian





   Похожие торренты   Торрент   Размер 
В этой теме нет новых непрочитанных сообщений. Полярный рейс (2013) DVDRip-AVC

666 | 142

1.45 ГБ

В этой теме нет новых непрочитанных сообщений. Полярный рейс (2013) DVDRip | Лицензия

249 | 12

1.37 ГБ

В этой теме нет новых непрочитанных сообщений. Полярный рейс (2013) DVDRip | Лицензия

138 | 9

697.23 МБ

В этой теме нет новых непрочитанных сообщений. Полярный рейс (2013) HDTVRip от GeneralFilm

213 | 41

700.89 МБ

В этой теме нет новых непрочитанных сообщений. Полярный рейс (2013) WEB-DLRip 720p

148 | 7

1.57 ГБ

В этой теме нет новых непрочитанных сообщений. Полярный рейс (2013) DVD5 от New-Team | Лицензия

377 | 90

3.5 ГБ

В этой теме нет новых непрочитанных сообщений. Полярный приз (2013) HDTVRip от -=HD-NET=-

88 | 19

1.04 ГБ




Вы не можете начинать темы
Вы не можете отвечать на сообщения
Вы не можете редактировать свои сообщения
Вы не можете удалять свои сообщения
Вы не можете добавлять вложения

Перейти:  
Для Мосгорсуда, Роскомнадзора и рекламодателей: mosgorsud-torrent[собачка]yandex.ru
 Вход
ppkBB3cker v.2 © 2008-2014 @ PPK
[ Time : 0.033s | 16 Queries | GZIP : Off ]

Торрент трекер RUTOR.IN, Не можете зайти на rutor.org? Какой новый адрес рутор? Какое зеркало рутор? Не работает rutor.org и зеркала? Тогда наш торрент специально для вас. Rutor.in неофициальное зеркало rutor. В случае если у Вас заблокирован rutor или вдруг Вы не можете на него зайти, то Вы без труда сможете скачать бесплатно и без рекламы последние новинки кино, игр, сериалов и прочего у нас, на Rutor.in. Не нужно использовать прокси, чтобы зайти на рутор, достаточно воспользоваться нашим ресурсом. Все новые фильмы, игры, сериалы, книги и музыка за 2013 и 2014 годы через торрент бесплатно. Скачивайте фильмы в хорошем качестве, игры для пк, xbox, playstation без регистрации. У нас вы найдете новые Зарубежные сериалы и Русские сериалы 2013, 2014, 2015 годов. Оставайтесь с нами, качайте любимые фильмы, игры, сериалы, книги и музыку.
cron