img image001 image001 image001 image001 image001 image001 image001 image001 image001 image001 image001 image001 image001 image001 image001

Planets Sun Sun Sun
Статистика раздачи
Автор: Nickolas3434 | Размер: 743.85 МБ | Добавлен: 07 мар 2014
Раздают: 38    Качают: 27
Скачать торрент
Скачать торрент
Описание торрента

СообщениеДобавлено: 07 мар 2014 

Страна: СССР
Производство: Одесская киностудия

Жанр: боевик, драма
Год выпуска: 1986
Продолжительность: 01:20:28

Перевод: не требуется
Оригинальная аудиодорожка: русский
Cубтитры: нет

Режиссер: Александр Павловский

В ролях:
Александр Соловьев, Иван Миколайчук, Константин Степанков, Владимир Волков, Ольга Кузнецова, Александр Демьяненко, Виктор Павлов, Юрий Рудченко, Алла Будницкая...

Описание:
В основе сюжета — подлинные события: склонение к отказу от подрывной деятельности и явке с повинной одного из главарей украинского контрреволюционного подполья, генерал-хорунжего Ю. Тютюнника. Молодой чекист Сашко Ковальчук внедряется в киевское контрреволюционное подполье. Как представителя этой организации его переправляют в Польшу, где обосновался возглавляемый Петлюрой зарубежный националистический центр. Встретившись с одним из главарей центра, ярым противником советской власти, генерал-хорунжим Турчиным, Ковальчук убеждает его в необходимости поездки на Украину для участия в учредительском съезде «всеукраинского освободительного центра». Турчин принимает приглашение. Приехав на Родину, он осознает всю обреченность своей деятельности и решает явиться с повинной в ЧК. Тем временем оставшемуся в Польше Ковальчуку удается завладеть картотекой действующих на Украине петлюровских агентов.





Исходник: DVD5 R5
Тип релиза: DVDRip
Контейнер: AVI

Видео: 688x384 (16:9), 25 fps, XviD ~ 1155 kbps avg, 0.175 bit/pixel
Аудио: 48 kHz, MP3 2.0, 128 kbps

Раздача от:
Общее
Полное имя : Na.ostrie.mecha.1986.DVDRip_[New-team]_by_AVP_Studio.avi
Формат : AVI
Формат/Информация : Audio Video Interleave
Размер файла : 744 Мбайт
Продолжительность : 1 ч. 20 м.
Общий поток : 1292 Кбит/сек
Программа кодирования : VirtualDubModRus 1.5.10.2 (build 2542/release)
Библиотека кодирования : VirtualDubMod build 2542/release

Видео
Идентификатор : 0
Формат : MPEG-4 Visual
Профиль формата : Advanced Simple@L5
Параметр BVOP формата : 1
Параметр QPel формата : Нет
Параметр GMC формата : Без точки перехода
Параметр матрицы формата : Выборочная
Идентификатор кодека : XVID
Идентификатор кодека/Подсказка : XviD
Продолжительность : 1 ч. 20 м.
Битрейт : 1155 Кбит/сек
Ширина : 688 пикселей
Высота : 384 пикселя
Соотношение сторон : 16:9
Частота кадров : 25,000 кадров/сек
Цветовое пространство : YUV
Субдискретизация насыщенности : 4:2:0
Битовая глубина : 8 бит
Тип развёртки : Прогрессивная
Метод сжатия : С потерями
Бит/(Пиксели*Кадры) : 0.175
Размер потока : 665 Мбайт (89%)
Библиотека кодирования : XviD 73

Аудио
Идентификатор : 1
Формат : MPEG Audio
Версия формата : Version 1
Профиль формата : Layer 3
Идентификатор кодека : 55
Идентификатор кодека/Подсказка : MP3
Продолжительность : 1 ч. 20 м.
Вид битрейта : Постоянный
Битрейт : 128 Кбит/сек
Каналы : 2 канала
Частота : 48,0 КГц
Метод сжатия : С потерями
Размер потока : 73,7 Мбайт (10%)
Выравнивание : Соединение по промежуткам
Продолжительность промежутка : 40 мс. (1,00 видеокадр)
Время предзагрузки промежутка : 504 мс.
Библиотека кодирования : LAME3.99r
Настройки программы : -m s -V 4 -q 2 -lowpass 17 -b 128



Последняя работа в кино Ивана Миколайчука.
В основе фильма - история генерал-хорунжего УНР Ю.О. Тютюнника.



   Похожие торренты   Торрент   Размер 
В этой теме нет новых непрочитанных сообщений. На острие меча (1986) DVDRip-AVC от New-Team

25 | 18

744.79 МБ

В этой теме нет новых непрочитанных сообщений. На острие меча (1986) DVDRip

0 | 12

1.46 ГБ

В этой теме нет новых непрочитанных сообщений. Последнее копьё / Острие копья / На острие копья / End of the Spear (2005) DVDRip

38 | 11

1.12 ГБ

В этой теме нет новых непрочитанных сообщений. Мясник, повар и мастер меча / The Butcher the Chef and the Swordsman (2010) DVDRip от BTT-TEAM

5 | 2

1.66 ГБ

В этой теме нет новых непрочитанных сообщений. Острие стрелы / Arrowhead (1953) DVDRip | L1

44 | 6

1.46 ГБ

В этой теме нет новых непрочитанных сообщений. Любовь на острие ножа [01-04 из 04] (2007) DVDRip

10 | 4

2.73 ГБ

В этой теме нет новых непрочитанных сообщений. Любовь на острие ножа [01-04 из 04] (2007) DVDRip от КинозалSAT

15 | 6

2.34 ГБ




Вы не можете начинать темы
Вы не можете отвечать на сообщения
Вы не можете редактировать свои сообщения
Вы не можете удалять свои сообщения
Вы не можете добавлять вложения

Перейти:  
Для Мосгорсуда, Роскомнадзора и рекламодателей: mosgorsud-torrent[собачка]yandex.ru
 Вход
ppkBB3cker v.2 © 2008-2014 @ PPK
[ Time : 0.030s | 15 Queries | GZIP : On ]

Торрент трекер RUTOR.IN, Не можете зайти на rutor.org? Какой новый адрес рутор? Какое зеркало рутор? Не работает rutor.org и зеркала? Тогда наш торрент специально для вас. Rutor.in неофициальное зеркало rutor. В случае если у Вас заблокирован rutor или вдруг Вы не можете на него зайти, то Вы без труда сможете скачать бесплатно и без рекламы последние новинки кино, игр, сериалов и прочего у нас, на Rutor.in. Не нужно использовать прокси, чтобы зайти на рутор, достаточно воспользоваться нашим ресурсом. Все новые фильмы, игры, сериалы, книги и музыка за 2013 и 2014 годы через торрент бесплатно. Скачивайте фильмы в хорошем качестве, игры для пк, xbox, playstation без регистрации. У нас вы найдете новые Зарубежные сериалы и Русские сериалы 2013, 2014, 2015 годов. Оставайтесь с нами, качайте любимые фильмы, игры, сериалы, книги и музыку.