img image001 image001 image001 image001 image001 image001 image001 image001 image001 image001 image001 image001 image001 image001 image001

Planets Sun Sun Sun
Статистика раздачи
Автор: Nickolas3434 | Размер: 744.79 МБ | Добавлен: 07 мар 2014
Раздают: 25    Качают: 18
Скачать торрент
Скачать торрент
Описание торрента

СообщениеДобавлено: 07 мар 2014 

Страна: СССР
Производство: Одесская киностудия

Жанр: боевик, драма
Год выпуска: 1986
Продолжительность: 01:20:28

Перевод: не требуется
Оригинальная аудиодорожка: русский
Cубтитры: нет

Режиссер: Александр Павловский

В ролях:
Александр Соловьев, Иван Миколайчук, Константин Степанков, Владимир Волков, Ольга Кузнецова, Александр Демьяненко, Виктор Павлов, Юрий Рудченко, Алла Будницкая...

Описание:
В основе сюжета — подлинные события: склонение к отказу от подрывной деятельности и явке с повинной одного из главарей украинского контрреволюционного подполья, генерал-хорунжего Ю. Тютюнника. Молодой чекист Сашко Ковальчук внедряется в киевское контрреволюционное подполье. Как представителя этой организации его переправляют в Польшу, где обосновался возглавляемый Петлюрой зарубежный националистический центр. Встретившись с одним из главарей центра, ярым противником советской власти, генерал-хорунжим Турчиным, Ковальчук убеждает его в необходимости поездки на Украину для участия в учредительском съезде «всеукраинского освободительного центра». Турчин принимает приглашение. Приехав на Родину, он осознает всю обреченность своей деятельности и решает явиться с повинной в ЧК. Тем временем оставшемуся в Польше Ковальчуку удается завладеть картотекой действующих на Украине петлюровских агентов.





Исходник: DVD5 R5
Тип релиза: DVDRip-AVC
Контейнер: MKV

Видео: 696->742x414 (1.793:1), 25 fps, H264 ~ 1100 kbps avg, 0.153 bit/pixel
Аудио: 48 kHz, Dolby Digital AC3 2.0, 192 kbps

Раздача от:
Общее
Полное имя : Na.ostrie.mecha.1986.DVDRip-AVC_[New-team]_by_AVP_Studio.mkv
Формат : Matroska
Версия формата : Version 2
Размер файла : 745 Мбайт
Продолжительность : 1 ч. 20 м.
Общий поток : 1294 Кбит/сек
Дата кодирования : UTC 2014-03-05 20:09:39
Программа кодирования : mkvmerge v6.1.0 ('Old Devil') built on Mar 4 2013 09:10:42
Библиотека кодирования : libebml v1.3.0 + libmatroska v1.4.0

Видео
Идентификатор : 1
Формат : AVC
Формат/Информация : Advanced Video Codec
Профиль формата : High@L4.1
Параметр CABAC формата : Да
Параметр ReFrames формата : 8 кадров
Идентификатор кодека : V_MPEG4/ISO/AVC
Продолжительность : 1 ч. 20 м.
Битрейт : 1100 Кбит/сек
Ширина : 696 пикселей
Высота : 414 пикселей
Соотношение сторон : 16:9
Соотношение сторон в оригинале : 16:9
Режим частоты кадров : Постоянный
Частота кадров : 25,000 кадров/сек
Цветовое пространство : YUV
Субдискретизация насыщенности : 4:2:0
Битовая глубина : 8 бит
Тип развёртки : Прогрессивная
Бит/(Пиксели*Кадры) : 0.153
Размер потока : 619 Мбайт (83%)
Библиотека кодирования : x264 core 138 r2356 a1d3d17
Настройки программы : cabac=1 / ref=8 / deblock=1:-2:-1 / analyse=0x3:0x113 / me=umh / subme=10 / psy=1 / psy_rd=1.00:0.05 / mixed_ref=1 / me_range=32 / chroma_me=1 / trellis=2 / 8x8dct=1 / cqm=0 / deadzone=21,11 / fast_pskip=0 / chroma_qp_offset=-3 / threads=3 / lookahead_threads=1 / sliced_threads=0 / nr=0 / decimate=0 / interlaced=0 / bluray_compat=0 / constrained_intra=0 / bframes=8 / b_pyramid=2 / b_adapt=2 / b_bias=0 / direct=3 / weightb=1 / open_gop=0 / weightp=2 / keyint=250 / keyint_min=25 / scenecut=40 / intra_refresh=0 / rc=2pass / mbtree=0 / bitrate=1100 / ratetol=1.0 / qcomp=0.60 / qpmin=0 / qpmax=69 / qpstep=4 / cplxblur=20.0 / qblur=0.5 / ip_ratio=1.40 / pb_ratio=1.30 / aq=1:1.00
Default : Да
Forced : Нет

Аудио
Идентификатор : 2
Формат : AC-3
Формат/Информация : Audio Coding 3
Расширение режима : CM (complete main)
Параметр Endianness формата : Big
Идентификатор кодека : A_AC3
Продолжительность : 1 ч. 20 м.
Вид битрейта : Постоянный
Битрейт : 192 Кбит/сек
Каналы : 2 канала
Расположение каналов : Front: L R
Частота : 48,0 КГц
Битовая глубина : 16 бит
Метод сжатия : С потерями
Размер потока : 111 Мбайт (15%)
Default : Да
Forced : Нет



Последняя работа в кино Ивана Миколайчука.
В основе фильма - история генерал-хорунжего УНР Ю.О. Тютюнника.



   Похожие торренты   Торрент   Размер 
В этой теме нет новых непрочитанных сообщений. На острие меча (1986) DVDRip от New-Team

38 | 27

743.85 МБ

В этой теме нет новых непрочитанных сообщений. На острие меча (1986) DVDRip

0 | 12

1.46 ГБ

В этой теме нет новых непрочитанных сообщений. Последнее копьё / Острие копья / На острие копья / End of the Spear (2005) DVDRip

38 | 11

1.12 ГБ

В этой теме нет новых непрочитанных сообщений. Мясник, повар и мастер меча / The Butcher the Chef and the Swordsman (2010) DVDRip от BTT-TEAM

5 | 2

1.66 ГБ

В этой теме нет новых непрочитанных сообщений. Любовь на острие ножа [01-04 из 04] (2007) DVDRip

10 | 4

2.73 ГБ

В этой теме нет новых непрочитанных сообщений. Острие стрелы / Arrowhead (1953) DVDRip | L1

44 | 6

1.46 ГБ

В этой теме нет новых непрочитанных сообщений. Любовь на острие ножа [01-04 из 04] (2007) DVDRip от КинозалSAT

15 | 6

2.34 ГБ




Вы не можете начинать темы
Вы не можете отвечать на сообщения
Вы не можете редактировать свои сообщения
Вы не можете удалять свои сообщения
Вы не можете добавлять вложения

Перейти:  
Для Мосгорсуда, Роскомнадзора и рекламодателей: mosgorsud-torrent[собачка]yandex.ru
 Вход
ppkBB3cker v.2 © 2008-2014 @ PPK
[ Time : 0.530s | 16 Queries | GZIP : Off ]

Торрент трекер RUTOR.IN, Не можете зайти на rutor.org? Какой новый адрес рутор? Какое зеркало рутор? Не работает rutor.org и зеркала? Тогда наш торрент специально для вас. Rutor.in неофициальное зеркало rutor. В случае если у Вас заблокирован rutor или вдруг Вы не можете на него зайти, то Вы без труда сможете скачать бесплатно и без рекламы последние новинки кино, игр, сериалов и прочего у нас, на Rutor.in. Не нужно использовать прокси, чтобы зайти на рутор, достаточно воспользоваться нашим ресурсом. Все новые фильмы, игры, сериалы, книги и музыка за 2013 и 2014 годы через торрент бесплатно. Скачивайте фильмы в хорошем качестве, игры для пк, xbox, playstation без регистрации. У нас вы найдете новые Зарубежные сериалы и Русские сериалы 2013, 2014, 2015 годов. Оставайтесь с нами, качайте любимые фильмы, игры, сериалы, книги и музыку.