img image001 image001 image001 image001 image001 image001 image001 image001 image001 image001 image001 image001 image001 image001 image001

Planets Sun Sun Sun
Статистика раздачи
Автор: Nickolas3434 | Размер: 745.09 МБ | Добавлен: 07 мар 2014
Раздают: 32    Качают: 14
Скачать торрент
Скачать торрент
Описание торрента

СообщениеДобавлено: 07 мар 2014 

Страна: СССР
Производство: Мосфильм

Жанр: боевик
Год выпуска: 1986
Продолжительность: 01:22:30

Перевод: не требуется
Оригинальная аудиодорожка: русский
Cубтитры: нет

Режиссер: Сергей Тарасов

В ролях:
Андрей Ростоцкий, Владимир Меньшов, Яна Друзь, Леонид Кулагин, Альгимантас Масюлис, Борис Химичев, Юрий Смирнов, Паул Буткевич, Андрей Юренев, Павел Махотин, Борис Хмельницкий, Александр Иншаков, Харий Швейц, Николай Мерзликин, Юрий Гусев...

Описание:
В иностранной разведке разрабатывают план, по которому на территорию Советского Союза внедряется опытный агент, нацеленный вывести из строя стратегически важную антенну на территории космической базы. Все продумано до мелочей, но у прибрежного маяка, куда высаживается диверсант, его замечает пограничник Алексей Бахтеев. Он докладывает о нарушителе на базу и продолжает его преследование. Физически выносливому и прекрасно подготовленному террористу легко удается затеряться в толпе людей. И только благодаря усилиям самоотверженного Алексея удается задержать диверсанта...





Исходник: DVD5 R5
Тип релиза: DVDRip
Контейнер: AVI

Видео: 688x384 (16:9), 25 fps, XviD ~ 1125 kbps avg, 0.170 bit/pixel
Аудио: 48 kHz, MP3 2.0, 128 kbps

Раздача от:
Общее
Полное имя : Perehvat.1986.DVDRip-745_[New-team]_by_AVP_Studio.avi
Формат : AVI
Формат/Информация : Audio Video Interleave
Размер файла : 745 Мбайт
Продолжительность : 1 ч. 22 м.
Общий поток : 1263 Кбит/сек
Программа кодирования : VirtualDubModRus 1.5.10.2 (build 2542/release)
Библиотека кодирования : VirtualDubMod build 2542/release

Видео
Идентификатор : 0
Формат : MPEG-4 Visual
Профиль формата : Advanced Simple@L5
Параметр BVOP формата : 1
Параметр QPel формата : Нет
Параметр GMC формата : Без точки перехода
Параметр матрицы формата : Выборочная
Идентификатор кодека : XVID
Идентификатор кодека/Подсказка : XviD
Продолжительность : 1 ч. 22 м.
Битрейт : 1125 Кбит/сек
Ширина : 688 пикселей
Высота : 384 пикселя
Соотношение сторон : 16:9
Частота кадров : 25,000 кадров/сек
Цветовое пространство : YUV
Субдискретизация насыщенности : 4:2:0
Битовая глубина : 8 бит
Тип развёртки : Прогрессивная
Метод сжатия : С потерями
Бит/(Пиксели*Кадры) : 0.170
Размер потока : 664 Мбайт (89%)
Библиотека кодирования : XviD 73

Аудио
Идентификатор : 1
Формат : MPEG Audio
Версия формата : Version 1
Профиль формата : Layer 3
Идентификатор кодека : 55
Идентификатор кодека/Подсказка : MP3
Продолжительность : 1 ч. 22 м.
Вид битрейта : Постоянный
Битрейт : 128 Кбит/сек
Каналы : 2 канала
Частота : 48,0 КГц
Метод сжатия : С потерями
Размер потока : 75,5 Мбайт (10%)
Выравнивание : Соединение по промежуткам
Продолжительность промежутка : 40 мс. (1,00 видеокадр)
Время предзагрузки промежутка : 504 мс.
Библиотека кодирования : LAME3.99r
Настройки программы : -m s -V 4 -q 2 -lowpass 17 -b 128



По сюжету фильма действия происходят в Прибалтике. Съемки проводились там же, в Литве. Так в кадрах фильма попадаются: железнодорожный вокзал Каунаса, центральные улицы Каунаса, аэропорт в Алексотасе (до 1988 года функционировал как гражданский аэропорт Каунаса). Погоня снималась на автотрассе А227 Клайпеда-Каунас-Вильнюс в районе съезда на Капсукас. Ныне площади перед ж/д вокзалом, где стояли такси, уже нет. Аэропорт в Алексотасе используется только для малой авиации, здание закрыто, на нем демонтирована надпись "Аэропорт", автотрасса А227 на картах значится как А1, а город Капсукас переименован в Мариямполе. Тем не менее, любой из этих объектов легко узнать и сейчас по кадрам фильма.
Кроме того часть натурных съёмок производилась под Выборгом[2]. В съемках принимали участие пограничники частей Северо-Западного пограничного округа - 102-го Выборгского пограничного отряда,2-й отдельной бригады пограничных сторожевых кораблей (г. Высоцк), 14-го отдельного авиационного полка (г. Петрозаводск). В съемках принимал участие ПСКР-707 (проекта 205-П) 2-ОБСКР. В роли старпома снялся реальный командир корабля капитан-лейтенант Прозоров Владимир Петрович.



   Похожие торренты   Торрент   Размер 
В этой теме нет новых непрочитанных сообщений. Перехват (1986) DVDRip от New-Team

47 | 31

1.46 ГБ

В этой теме нет новых непрочитанных сообщений. Перехват (1986) DVDRip-AVC от New-Team

99 | 20

1.46 ГБ

В этой теме нет новых непрочитанных сообщений. Перехват (1986) DVDRip от KinoZalSat-СССР

20 | 4

1.37 ГБ

В этой теме нет новых непрочитанных сообщений. Нейтральные воды / Перехват (1968 - 1986) DVD5

33 | 18

4.37 ГБ

В этой теме нет новых непрочитанных сообщений. На острие меча (1986) DVDRip-AVC от New-Team

25 | 18

744.79 МБ

В этой теме нет новых непрочитанных сообщений. Покушение на ГОЭЛРО (1986) DVDRip от New-Team

65 | 56

2.19 ГБ

В этой теме нет новых непрочитанных сообщений. Покушение на ГОЭЛРО (1986) DVDRip-AVC от New-Team

28 | 44

2.91 ГБ




Вы не можете начинать темы
Вы не можете отвечать на сообщения
Вы не можете редактировать свои сообщения
Вы не можете удалять свои сообщения
Вы не можете добавлять вложения

Перейти:  
Для Мосгорсуда, Роскомнадзора и рекламодателей: mosgorsud-torrent[собачка]yandex.ru
 Вход
ppkBB3cker v.2 © 2008-2014 @ PPK
[ Time : 0.026s | 16 Queries | GZIP : Off ]

Торрент трекер RUTOR.IN, Не можете зайти на rutor.org? Какой новый адрес рутор? Какое зеркало рутор? Не работает rutor.org и зеркала? Тогда наш торрент специально для вас. Rutor.in неофициальное зеркало rutor. В случае если у Вас заблокирован rutor или вдруг Вы не можете на него зайти, то Вы без труда сможете скачать бесплатно и без рекламы последние новинки кино, игр, сериалов и прочего у нас, на Rutor.in. Не нужно использовать прокси, чтобы зайти на рутор, достаточно воспользоваться нашим ресурсом. Все новые фильмы, игры, сериалы, книги и музыка за 2013 и 2014 годы через торрент бесплатно. Скачивайте фильмы в хорошем качестве, игры для пк, xbox, playstation без регистрации. У нас вы найдете новые Зарубежные сериалы и Русские сериалы 2013, 2014, 2015 годов. Оставайтесь с нами, качайте любимые фильмы, игры, сериалы, книги и музыку.