img image001 image001 image001 image001 image001 image001 image001 image001 image001 image001 image001 image001 image001 image001 image001

Planets Sun Sun Sun
Статистика раздачи
Автор: Nickolas3434 | Размер: 4.37 ГБ | Добавлен: 07 мар 2014
Раздают: 162    Качают: 149
Скачать торрент
Скачать торрент
Описание торрента

СообщениеДобавлено: 07 мар 2014 

Страна: Россия
Жанр: детектив, приключения, история
Год выпуска: 2010
Продолжительность: 02:17:25


Режиссер: Олег Рясков


В ролях: Илья Соколовский, Екатерина Редникова (вдова), Сергей Чонишвили (Ушаков), Михаил Полицеймако, Марина Могилевская, Дарья Мельникова, Анастасия Горькова, Максим Дахненко, Александр Гришин, Андрей Чубченко, Александр Стариков (граф Толстой), Роман Македонский (царевич Пётр)


Описание: К князю Меншикову приезжает посланец ордена масонов с планом женить наследника престола на дочери серого кардинала. В это же время князя посещает молодой офицер Самойлов. Он получает задание, которое, проявив смекалку и отвагу, с блеском выполняет. После этого глава Тайной канцелярии Ушаков обращает внимание на находчивого офицера и благодаря ловкой интриге вынуждает его поступить на службу в свое ведомство. Теперь Ивана ждут головокружительные приключения - охота за серийным убийцей, расследование смерти пожилого дворянина в доме терпимости, попытка разобраться в кознях прародителя зла и др.






Семпл


Качество: BDRip
Контейнер: MKV

Видео: AVC, 1280x720 (16:9), 4361 kbps, 25 fps, 0,189 bpp
Аудио: русский / AC3 / 2.0 / 48 kHz / 192 kbps



Format : Matroska
Format version : Version 2
File size : 4.37 GiB
Duration : 2h 17mn
Overall bit rate : 4 553 Kbps
Movie name : = Записки экспедитора тайной канцелярии BDRip 720p by SC Kosmos =
Encoded date : UTC 2014-03-05 14:09:02
Writing application : mkvmerge v3.3.0 ('Language') gebaut am Mar 24 2010 14:59:24
Writing library : libebml v0.8.0 + libmatroska v0.9.0

Video
ID : 1
Format : AVC
Format/Info : Advanced Video Codec
Format profile : High@L4.1
Format settings, CABAC : Yes
Format settings, ReFrames : 9 frames
Codec ID : V_MPEG4/ISO/AVC
Duration : 2h 17mn
Bit rate : 4 361 Kbps
Width : 1 280 pixels
Height : 720 pixels
Display aspect ratio : 16:9
Frame rate : 25.000 fps
Color space : YUV
Chroma subsampling : 4:2:0
Bit depth : 8 bits
Scan type : Progressive
Bits/(Pixel*Frame) : 0.189
Stream size : 4.10 GiB (94%)
Title : Записки экспедитора тайной канцелярии BDRip 720p by SC Kosmos
Writing library : x264 core 140 r2377 1ca7bb9
Encoding settings : cabac=1 / ref=9 / deblock=1:-2:-2 / analyse=0x3:0x113 / me=umh / subme=11 / psy=1 / psy_rd=1.00:0.00 / mixed_ref=1 / me_range=32 / chroma_me=1 / trellis=2 / 8x8dct=1 / cqm=0 / deadzone=21,11 / fast_pskip=0 / chroma_qp_offset=-2 / threads=12 / lookahead_threads=1 / sliced_threads=0 / nr=0 / decimate=1 / interlaced=0 / bluray_compat=0 / constrained_intra=0 / bframes=10 / b_pyramid=2 / b_adapt=1 / b_bias=0 / direct=3 / weightb=1 / open_gop=0 / weightp=2 / keyint=250 / keyint_min=25 / scenecut=40 / intra_refresh=0 / rc=2pass / mbtree=0 / bitrate=4361 / ratetol=1.0 / qcomp=0.60 / qpmin=0 / qpmax=69 / qpstep=4 / cplxblur=20.0 / qblur=0.5 / ip_ratio=1.40 / pb_ratio=1.30 / aq=1:1.00
Language : Russian
Default : No
Forced : No

Audio
ID : 2
Format : AC-3
Format/Info : Audio Coding 3
Mode extension : CM (complete main)
Codec ID : A_AC3
Duration : 2h 17mn
Bit rate mode : Constant
Bit rate : 192 Kbps
Channel(s) : 2 channels
Channel positions : Front: L R
Sampling rate : 48.0 KHz
Bit depth : 16 bits
Compression mode : Lossy
Stream size : 189 MiB (4%)
Language : Russian
Default : Yes
Forced : No










   Похожие торренты   Торрент   Размер 
В этой теме нет новых непрочитанных сообщений. Записки экспедитора Тайной канцелярии 2 (2011) BDRip 720p

978 | 83

4.37 ГБ

В этой теме нет новых непрочитанных сообщений. Записки экспедитора тайной канцелярии [S01] (2010) HDTVRip

163 | 32

4.71 ГБ

В этой теме нет новых непрочитанных сообщений. Записки экспедитора Тайной канцелярии [01-08 из 8] (2010) DVDRip - LOOK

147 | 13

4.14 ГБ

В этой теме нет новых непрочитанных сообщений. Записки экспедитора Тайной канцелярии [S1-2: 01-16] (2010) DVDRip - КинозалSAT

240 | 27

10.16 ГБ

В этой теме нет новых непрочитанных сообщений. Записки экспедитора тайной канцелярии [S01-02] (2010-2011) DVDRip-AVC

352 | 115

15.67 ГБ

В этой теме нет новых непрочитанных сообщений. Записки экспедитора Тайной канцелярии [01-08 из 08] (2010) DVDRip от КинозалSAT

66 | 8

4.3 ГБ

В этой теме нет новых непрочитанных сообщений. Записки экспедитора тайной канцелярии [01х01-04 из 08] (2010) HDTV 1080i

95 | 45

20.61 ГБ




Вы не можете начинать темы
Вы не можете отвечать на сообщения
Вы не можете редактировать свои сообщения
Вы не можете удалять свои сообщения
Вы не можете добавлять вложения

Перейти:  
Для Мосгорсуда, Роскомнадзора и рекламодателей: mosgorsud-torrent[собачка]yandex.ru
 Вход
ppkBB3cker v.2 © 2008-2014 @ PPK
[ Time : 0.039s | 16 Queries | GZIP : Off ]

Торрент трекер RUTOR.IN, Не можете зайти на rutor.org? Какой новый адрес рутор? Какое зеркало рутор? Не работает rutor.org и зеркала? Тогда наш торрент специально для вас. Rutor.in неофициальное зеркало rutor. В случае если у Вас заблокирован rutor или вдруг Вы не можете на него зайти, то Вы без труда сможете скачать бесплатно и без рекламы последние новинки кино, игр, сериалов и прочего у нас, на Rutor.in. Не нужно использовать прокси, чтобы зайти на рутор, достаточно воспользоваться нашим ресурсом. Все новые фильмы, игры, сериалы, книги и музыка за 2013 и 2014 годы через торрент бесплатно. Скачивайте фильмы в хорошем качестве, игры для пк, xbox, playstation без регистрации. У нас вы найдете новые Зарубежные сериалы и Русские сериалы 2013, 2014, 2015 годов. Оставайтесь с нами, качайте любимые фильмы, игры, сериалы, книги и музыку.