img image001 image001 image001 image001 image001 image001 image001 image001 image001 image001 image001 image001 image001 image001 image001

Planets Sun Sun Sun
Статистика раздачи
Автор: Nickolas3434 | Размер: 2.19 ГБ | Добавлен: 08 мар 2014
Раздают: 65    Качают: 56
Скачать торрент
Скачать торрент
Описание торрента

СообщениеДобавлено: 08 мар 2014 

Страна: СССР
Производство: Свердловская к/ст по заказу Гостелерадио

Жанр: детектив
Год выпуска: 1986
Продолжительность: 03:32:44 (01:07:02+01:14:50+01:10:52)

Перевод: не требуется
Оригинальная аудиодорожка: русский
Cубтитры: нет

Режиссер: Николай Гусаров

В ролях:
Антанас Барчас, Игорь Ледогоров, Родион Нахапетов, Александр Михайлов, Анна Каменкова, Георгий Юматов, Алексей Булдаков, Юрий Назаров, Валерий Баринов, Валерий Захарьев, Геннадий Юхтин, Светлана Рябова, Альгимантас Масюлис, Гедиминас Гирдвайнис, Любовь Полищук, Гедиминас Карка, Валерий Доронин, Борис Клюев, Павел Белозёров, Петр Зайченко, Юрий Малашин (II), Виктор Мамаев, Олег Афанасьев, Вера Глаголева...

Описание:
1932 год. Урал, город Краснотальск. На электростанции совершена диверсия. Турбина выведена из строя. Усыпив сторожей, кто-то насыпал наждачный песок в турбинное масло. В Москве руководством ОГПУ получена секретная шифрограмма. Из нее становится известно о заговоре немецкой разведки против СССР. Его основная цель — подрывные акции на советских электростанциях. Особое внимание уделяется Уралу и строящемуся ДнепроГЭСу. Диверсия в Краснотальске — звено в этой цепи. В Краснотальск направлен специальный агент ОГПУ Виктор Сергеевич Ларцев…





Исходник: DVD9 R5
Тип релиза: DVDRip
Контейнер: AVI

Видео: 704x528 (4:3), 25 fps, XviD ~ 1334 kbps avg, 0.144 bit/pixel
Аудио: 48 kHz, MP3 2.0, 128 kbps

Раздача от:
Общее
Полное имя : Pokushenie.na.goelro.1986.DVDRip-2.18_[New-team]_by_AVP_Studio\02.avi
Формат : AVI
Формат/Информация : Audio Video Interleave
Размер файла : 788 Мбайт
Продолжительность : 1 ч. 14 м.
Общий поток : 1472 Кбит/сек
Программа кодирования : VirtualDubModRus 1.5.10.2 (build 2542/release)
Библиотека кодирования : VirtualDubMod build 2542/release

Видео
Идентификатор : 0
Формат : MPEG-4 Visual
Профиль формата : Advanced Simple@L5
Параметр BVOP формата : 1
Параметр QPel формата : Нет
Параметр GMC формата : Без точки перехода
Параметр матрицы формата : Выборочная
Идентификатор кодека : XVID
Идентификатор кодека/Подсказка : XviD
Продолжительность : 1 ч. 14 м.
Битрейт : 1334 Кбит/сек
Ширина : 704 пикселя
Высота : 528 пикселей
Соотношение сторон : 4:3
Частота кадров : 25,000 кадров/сек
Цветовое пространство : YUV
Субдискретизация насыщенности : 4:2:0
Битовая глубина : 8 бит
Тип развёртки : Прогрессивная
Метод сжатия : С потерями
Бит/(Пиксели*Кадры) : 0.144
Размер потока : 714 Мбайт (91%)
Библиотека кодирования : XviD 73

Аудио
Идентификатор : 1
Формат : MPEG Audio
Версия формата : Version 1
Профиль формата : Layer 3
Идентификатор кодека : 55
Идентификатор кодека/Подсказка : MP3
Продолжительность : 1 ч. 14 м.
Вид битрейта : Постоянный
Битрейт : 128 Кбит/сек
Каналы : 2 канала
Частота : 48,0 КГц
Метод сжатия : С потерями
Размер потока : 68,5 Мбайт (9%)
Выравнивание : Соединение по промежуткам
Продолжительность промежутка : 40 мс. (1,00 видеокадр)
Время предзагрузки промежутка : 504 мс.
Библиотека кодирования : LAME3.99r
Настройки программы : -m s -V 4 -q 2 -lowpass 17 -b 128





   Похожие торренты   Торрент   Размер 
В этой теме нет новых непрочитанных сообщений. Покушение на ГОЭЛРО (1986) DVDRip-AVC от New-Team

28 | 44

2.91 ГБ

В этой теме нет новых непрочитанных сообщений. Покушение на ГОЭЛРО (1986) DVDRip от New-Team

101 | 22

2.91 ГБ

В этой теме нет новых непрочитанных сообщений. Покушение на ГОЭЛРО (1986) DVDRip от KinoZalSat

7 | 9

3.27 ГБ

В этой теме нет новых непрочитанных сообщений. Покушение [8 серий из 8] (2010) DVDRip

296 | 54

3.92 ГБ

В этой теме нет новых непрочитанных сообщений. Покушение / Atentát (1965) DVDRip от ExKinoRay

20 | 6

1.37 ГБ

В этой теме нет новых непрочитанных сообщений. Покушение [01-08х08] (2010) DVDRip от КинозалSAT

51 | 25

4.69 ГБ

В этой теме нет новых непрочитанных сообщений. Тайны века. Покушение (2003) DVDRip от Pshichko66

93 | 5

651.01 МБ




Вы не можете начинать темы
Вы не можете отвечать на сообщения
Вы не можете редактировать свои сообщения
Вы не можете удалять свои сообщения
Вы не можете добавлять вложения

Перейти:  
Для Мосгорсуда, Роскомнадзора и рекламодателей: mosgorsud-torrent[собачка]yandex.ru
 Вход
ppkBB3cker v.2 © 2008-2014 @ PPK
[ Time : 0.688s | 16 Queries | GZIP : Off ]

Торрент трекер RUTOR.IN, Не можете зайти на rutor.org? Какой новый адрес рутор? Какое зеркало рутор? Не работает rutor.org и зеркала? Тогда наш торрент специально для вас. Rutor.in неофициальное зеркало rutor. В случае если у Вас заблокирован rutor или вдруг Вы не можете на него зайти, то Вы без труда сможете скачать бесплатно и без рекламы последние новинки кино, игр, сериалов и прочего у нас, на Rutor.in. Не нужно использовать прокси, чтобы зайти на рутор, достаточно воспользоваться нашим ресурсом. Все новые фильмы, игры, сериалы, книги и музыка за 2013 и 2014 годы через торрент бесплатно. Скачивайте фильмы в хорошем качестве, игры для пк, xbox, playstation без регистрации. У нас вы найдете новые Зарубежные сериалы и Русские сериалы 2013, 2014, 2015 годов. Оставайтесь с нами, качайте любимые фильмы, игры, сериалы, книги и музыку.