img image001 image001 image001 image001 image001 image001 image001 image001 image001 image001 image001 image001 image001 image001 image001

Planets Sun Sun Sun
Статистика раздачи
Автор: Nickolas3434 | Размер: 2.91 ГБ | Добавлен: 09 мар 2014
Раздают: 28    Качают: 44
Скачать торрент
Скачать торрент
Описание торрента

СообщениеДобавлено: 09 мар 2014 

Страна: СССР
Производство: Свердловская к/ст по заказу Гостелерадио

Жанр: детектив
Год выпуска: 1986
Продолжительность: 03:32:44 (01:07:02+01:14:50+01:10:52)

Перевод: не требуется
Оригинальная аудиодорожка: русский
Cубтитры: нет

Режиссер: Николай Гусаров

В ролях:
Антанас Барчас, Игорь Ледогоров, Родион Нахапетов, Александр Михайлов, Анна Каменкова, Георгий Юматов, Алексей Булдаков, Юрий Назаров, Валерий Баринов, Валерий Захарьев, Геннадий Юхтин, Светлана Рябова, Альгимантас Масюлис, Гедиминас Гирдвайнис, Любовь Полищук, Гедиминас Карка, Валерий Доронин, Борис Клюев, Павел Белозёров, Петр Зайченко, Юрий Малашин (II), Виктор Мамаев, Олег Афанасьев, Вера Глаголева...

Описание:
1932 год. Урал, город Краснотальск. На электростанции совершена диверсия. Турбина выведена из строя. Усыпив сторожей, кто-то насыпал наждачный песок в турбинное масло. В Москве руководством ОГПУ получена секретная шифрограмма. Из нее становится известно о заговоре немецкой разведки против СССР. Его основная цель — подрывные акции на советских электростанциях. Особое внимание уделяется Уралу и строящемуся ДнепроГЭСу. Диверсия в Краснотальске — звено в этой цепи. В Краснотальск направлен специальный агент ОГПУ Виктор Сергеевич Ларцев…





Исходник: DVD9 R5
Тип релиза: DVDRip-AVC
Контейнер: MKV

Видео: 704->752x574 (4:3), 25 fps, H264 ~ 1762 kbps avg, 0.174 bit/pixel
Аудио: 48 kHz, Dolby AC3 2.0, 192 kbps

Раздача от:
Общее
Полное имя : Pokushenie.na.goelro.1986.DVDRip-AVC_[New-team]_by_AVP_Studio\03.mkv
Формат : Matroska
Версия формата : Version 2
Размер файла : 991 Мбайт
Продолжительность : 1 ч. 10 м.
Общий поток : 1956 Кбит/сек
Дата кодирования : UTC 2014-03-08 11:28:39
Программа кодирования : mkvmerge v6.1.0 ('Old Devil') built on Mar 4 2013 09:10:42
Библиотека кодирования : libebml v1.3.0 + libmatroska v1.4.0

Видео
Идентификатор : 1
Формат : AVC
Формат/Информация : Advanced Video Codec
Профиль формата : High@L4.1
Параметр CABAC формата : Да
Параметр ReFrames формата : 8 кадров
Идентификатор кодека : V_MPEG4/ISO/AVC
Продолжительность : 1 ч. 10 м.
Битрейт : 1762 Кбит/сек
Ширина : 704 пикселя
Высота : 574 пикселя
Соотношение сторон : 4:3
Режим частоты кадров : Постоянный
Частота кадров : 25,000 кадров/сек
Цветовое пространство : YUV
Субдискретизация насыщенности : 4:2:0
Битовая глубина : 8 бит
Тип развёртки : Прогрессивная
Бит/(Пиксели*Кадры) : 0.174
Размер потока : 874 Мбайт (88%)
Библиотека кодирования : x264 core 138 r2356 a1d3d17
Настройки программы : cabac=1 / ref=8 / deblock=1:-2:-1 / analyse=0x3:0x113 / me=umh / subme=10 / psy=1 / psy_rd=1.00:0.05 / mixed_ref=1 / me_range=32 / chroma_me=1 / trellis=2 / 8x8dct=1 / cqm=0 / deadzone=21,11 / fast_pskip=0 / chroma_qp_offset=-3 / threads=3 / lookahead_threads=1 / sliced_threads=0 / nr=0 / decimate=0 / interlaced=0 / bluray_compat=0 / constrained_intra=0 / bframes=8 / b_pyramid=2 / b_adapt=2 / b_bias=0 / direct=3 / weightb=1 / open_gop=0 / weightp=2 / keyint=250 / keyint_min=25 / scenecut=40 / intra_refresh=0 / rc=2pass / mbtree=0 / bitrate=1762 / ratetol=1.0 / qcomp=0.60 / qpmin=0 / qpmax=69 / qpstep=4 / cplxblur=20.0 / qblur=0.5 / ip_ratio=1.40 / pb_ratio=1.30 / aq=1:1.00
Default : Да
Forced : Нет

Аудио
Идентификатор : 2
Формат : AC-3
Формат/Информация : Audio Coding 3
Расширение режима : CM (complete main)
Параметр Endianness формата : Big
Идентификатор кодека : A_AC3
Продолжительность : 1 ч. 10 м.
Вид битрейта : Постоянный
Битрейт : 192 Кбит/сек
Каналы : 2 канала
Расположение каналов : Front: L R
Частота : 48,0 КГц
Битовая глубина : 16 бит
Метод сжатия : С потерями
Размер потока : 97,3 Мбайт (10%)
Default : Да
Forced : Нет





   Похожие торренты   Торрент   Размер 
В этой теме нет новых непрочитанных сообщений. Покушение на ГОЭЛРО (1986) DVDRip от New-Team

101 | 22

2.91 ГБ

В этой теме нет новых непрочитанных сообщений. Покушение на ГОЭЛРО (1986) DVDRip от New-Team

67 | 56

2.19 ГБ

В этой теме нет новых непрочитанных сообщений. Покушение на ГОЭЛРО (1986) DVDRip от KinoZalSat

7 | 9

3.27 ГБ

В этой теме нет новых непрочитанных сообщений. Покушение [8 серий из 8] (2010) DVDRip

296 | 54

3.92 ГБ

В этой теме нет новых непрочитанных сообщений. Покушение / Atentát (1965) DVDRip от ExKinoRay

20 | 6

1.37 ГБ

В этой теме нет новых непрочитанных сообщений. Покушение [01-08х08] (2010) DVDRip от КинозалSAT

51 | 25

4.69 ГБ

В этой теме нет новых непрочитанных сообщений. Тайны века. Покушение (2003) DVDRip от Pshichko66

93 | 5

651.01 МБ




Вы не можете начинать темы
Вы не можете отвечать на сообщения
Вы не можете редактировать свои сообщения
Вы не можете удалять свои сообщения
Вы не можете добавлять вложения

Перейти:  
Для Мосгорсуда, Роскомнадзора и рекламодателей: mosgorsud-torrent[собачка]yandex.ru
 Вход
ppkBB3cker v.2 © 2008-2014 @ PPK
[ Time : 0.064s | 16 Queries | GZIP : Off ]

Торрент трекер RUTOR.IN, Не можете зайти на rutor.org? Какой новый адрес рутор? Какое зеркало рутор? Не работает rutor.org и зеркала? Тогда наш торрент специально для вас. Rutor.in неофициальное зеркало rutor. В случае если у Вас заблокирован rutor или вдруг Вы не можете на него зайти, то Вы без труда сможете скачать бесплатно и без рекламы последние новинки кино, игр, сериалов и прочего у нас, на Rutor.in. Не нужно использовать прокси, чтобы зайти на рутор, достаточно воспользоваться нашим ресурсом. Все новые фильмы, игры, сериалы, книги и музыка за 2013 и 2014 годы через торрент бесплатно. Скачивайте фильмы в хорошем качестве, игры для пк, xbox, playstation без регистрации. У нас вы найдете новые Зарубежные сериалы и Русские сериалы 2013, 2014, 2015 годов. Оставайтесь с нами, качайте любимые фильмы, игры, сериалы, книги и музыку.
cron