img image001 image001 image001 image001 image001 image001 image001 image001 image001 image001 image001 image001 image001 image001 image001

Planets Sun Sun Sun
Статистика раздачи
Автор: Nickolas3434 | Размер: 1.46 ГБ | Добавлен: 09 мар 2014
Раздают: 138    Качают: 18
Скачать торрент
Скачать торрент
Описание торрента

СообщениеДобавлено: 09 мар 2014 

Страна: СССР
Производство: Мосфильм

Жанр: комедия
Год выпуска: 1962
Продолжительность: 01:28:29

Перевод: не требуется
Оригинальная аудиодорожка: русский
Cубтитры: нет

Режиссер: Валентин Плучек

В ролях:
Борис Тенин, Евгений Весник, Татьяна Пельтцер, Владимир Лепко, Анатолий Папанов, Евгений Супонев, Лилия Шарапова, Ольга Аросева, Виктор Шахов, Георгий Иванов (II), Александр Козубский, Виктор Байков, Андрей Крюков, Владимир Дорофеев, Олег Солюс, Анатолий Кубацкий, Николай Яковченко, Светлана Харитонова, Нина Беляева, Александр Машовец...

Описание:
Председатель благополучного колхоза Илья Руденко приготовился к торжественной встрече своего знаменитого земляка полковника в отставке Коваля. Приехав в Затишье отдохнуть, бывший полковник был удивлен странному подходу Ильи к коллективному благополучию. А когда председатель стал готовить весь урожай яблоневого сада для отправки на Север, чтобы продать там втридорога, Коваль сказал свое слово жестко и однозначно — и получил такую же однозначную поддержку у всех жителей Затишья…





Исходник: DVB
Тип релиза: SATRip
Контейнер: AVI

Видео: 688x512 (4:3), 25 fps, XviD ~ 2156 kbps avg, 0.245 bit/pixel
Аудио: 48 kHz, Dolby Digital AC3 2.0, 192 kbps

Раздача от:
Общее
Полное имя : Jabloko.razdora.1962.SATRip_[New-team]_by_AVP_Studio.avi
Формат : AVI
Формат/Информация : Audio Video Interleave
Размер файла : 1,46 Гбайт
Продолжительность : 1 ч. 28 м.
Общий поток : 2358 Кбит/сек
Программа кодирования : VirtualDubModRus 1.5.10.2 (build 2542/release)
Библиотека кодирования : VirtualDubMod build 2542/release

Видео
Идентификатор : 0
Формат : MPEG-4 Visual
Профиль формата : Advanced Simple@L5
Параметр BVOP формата : 1
Параметр QPel формата : Нет
Параметр GMC формата : Без точки перехода
Параметр матрицы формата : Выборочная
Идентификатор кодека : XVID
Идентификатор кодека/Подсказка : XviD
Продолжительность : 1 ч. 28 м.
Битрейт : 2156 Кбит/сек
Ширина : 688 пикселей
Высота : 512 пикселей
Соотношение сторон : 4:3
Частота кадров : 25,000 кадров/сек
Цветовое пространство : YUV
Субдискретизация насыщенности : 4:2:0
Битовая глубина : 8 бит
Тип развёртки : Прогрессивная
Метод сжатия : С потерями
Бит/(Пиксели*Кадры) : 0.245
Размер потока : 1,33 Гбайт (91%)
Библиотека кодирования : XviD 73

Аудио
Идентификатор : 1
Формат : AC-3
Формат/Информация : Audio Coding 3
Расширение режима : CM (complete main)
Параметр Endianness формата : Big
Идентификатор кодека : 2000
Продолжительность : 1 ч. 28 м.
Вид битрейта : Постоянный
Битрейт : 192 Кбит/сек
Каналы : 2 канала
Расположение каналов : Front: L R
Частота : 48,0 КГц
Битовая глубина : 16 бит
Метод сжатия : С потерями
Размер потока : 122 Мбайт (8%)
Выравнивание : Разделение по промежуткам
Продолжительность промежутка : 40 мс. (1,00 видеокадр)
Время предзагрузки промежутка : 500 мс





   Похожие торренты   Торрент   Размер 
В этой теме нет новых непрочитанных сообщений. Яблоко раздора (1962) SATRip от New-Team

23 | 18

745.29 МБ

В этой теме нет новых непрочитанных сообщений. Яблоко раздора (1962) SATRip-AVC от New-Team

22 | 24

1.46 ГБ

В этой теме нет новых непрочитанных сообщений. Яблоко раздора (1962) SATRip

6 | 4

1.19 ГБ

В этой теме нет новых непрочитанных сообщений. Тайны Чапман. Яблоко раздора (2016) SATRip

23 | 5

687.48 МБ

В этой теме нет новых непрочитанных сообщений. Следствие вели. Яблоко раздора [эфир от 13.11] (2011) SATRip от RiperAM

12 | 2

461.87 МБ

В этой теме нет новых непрочитанных сообщений. ГМО. Еда раздора [06/12] (2014) SATRip

840 | 118

748.88 МБ

В этой теме нет новых непрочитанных сообщений. Яблоко Луны (2009) SATRip - КинозалSAT

3 | 3

699.9 МБ




Вы не можете начинать темы
Вы не можете отвечать на сообщения
Вы не можете редактировать свои сообщения
Вы не можете удалять свои сообщения
Вы не можете добавлять вложения

Перейти:  
Для Мосгорсуда, Роскомнадзора и рекламодателей: mosgorsud-torrent[собачка]yandex.ru
 Вход
ppkBB3cker v.2 © 2008-2014 @ PPK
[ Time : 0.071s | 16 Queries | GZIP : Off ]

Торрент трекер RUTOR.IN, Не можете зайти на rutor.org? Какой новый адрес рутор? Какое зеркало рутор? Не работает rutor.org и зеркала? Тогда наш торрент специально для вас. Rutor.in неофициальное зеркало rutor. В случае если у Вас заблокирован rutor или вдруг Вы не можете на него зайти, то Вы без труда сможете скачать бесплатно и без рекламы последние новинки кино, игр, сериалов и прочего у нас, на Rutor.in. Не нужно использовать прокси, чтобы зайти на рутор, достаточно воспользоваться нашим ресурсом. Все новые фильмы, игры, сериалы, книги и музыка за 2013 и 2014 годы через торрент бесплатно. Скачивайте фильмы в хорошем качестве, игры для пк, xbox, playstation без регистрации. У нас вы найдете новые Зарубежные сериалы и Русские сериалы 2013, 2014, 2015 годов. Оставайтесь с нами, качайте любимые фильмы, игры, сериалы, книги и музыку.