img image001 image001 image001 image001 image001 image001 image001 image001 image001 image001 image001 image001 image001 image001 image001 image001

Planets Sun Sun Sun
Статистика раздачи
Автор: Nickolas3434 | Размер: 1.46 ГБ | Добавлен: 10 мар 2014
Раздают: 20    Качают: 24
Скачать торрент
Скачать торрент
Описание торрента

СообщениеДобавлено: 10 мар 2014 

Страна: СССР
Производство: Мосфильм

Жанр: комедия
Год выпуска: 1962
Продолжительность: 01:28:29

Перевод: не требуется
Оригинальная аудиодорожка: русский
Cубтитры: нет

Режиссер: Валентин Плучек

В ролях:
Борис Тенин, Евгений Весник, Татьяна Пельтцер, Владимир Лепко, Анатолий Папанов, Евгений Супонев, Лилия Шарапова, Ольга Аросева, Виктор Шахов, Георгий Иванов (II), Александр Козубский, Виктор Байков, Андрей Крюков, Владимир Дорофеев, Олег Солюс, Анатолий Кубацкий, Николай Яковченко, Светлана Харитонова, Нина Беляева, Александр Машовец...

Описание:
Председатель благополучного колхоза Илья Руденко приготовился к торжественной встрече своего знаменитого земляка полковника в отставке Коваля. Приехав в Затишье отдохнуть, бывший полковник был удивлен странному подходу Ильи к коллективному благополучию. А когда председатель стал готовить весь урожай яблоневого сада для отправки на Север, чтобы продать там втридорога, Коваль сказал свое слово жестко и однозначно — и получил такую же однозначную поддержку у всех жителей Затишья…





Исходник: DVB
Тип релиза: SATRip-AVC
Контейнер: MKV

Видео: 688->736x564 (4:3), 25 fps, H264 ~ 2161 kbps avg, 0.223 bit/pixel
Аудио: 48 kHz, Dolby Digital AC3 2.0, 192 kbps

Раздача от:
Общее
Полное имя : Jabloko.razdora.1962.SATRip-AVC_[New-team]_by_AVP_Studio.mkv
Формат : Matroska
Версия формата : Version 2
Размер файла : 1,46 Гбайт
Продолжительность : 1 ч. 28 м.
Общий поток : 2355 Кбит/сек
Дата кодирования : UTC 2014-03-09 01:07:08
Программа кодирования : mkvmerge v6.1.0 ('Old Devil') built on Mar 4 2013 09:10:42
Библиотека кодирования : libebml v1.3.0 + libmatroska v1.4.0

Видео
Идентификатор : 1
Формат : AVC
Формат/Информация : Advanced Video Codec
Профиль формата : High@L4.1
Параметр CABAC формата : Да
Параметр ReFrames формата : 8 кадров
Идентификатор кодека : V_MPEG4/ISO/AVC
Продолжительность : 1 ч. 28 м.
Битрейт : 2161 Кбит/сек
Ширина : 688 пикселей
Высота : 564 пикселя
Соотношение сторон : 4:3
Режим частоты кадров : Постоянный
Частота кадров : 25,000 кадров/сек
Цветовое пространство : YUV
Субдискретизация насыщенности : 4:2:0
Битовая глубина : 8 бит
Тип развёртки : Прогрессивная
Бит/(Пиксели*Кадры) : 0.223
Размер потока : 1,31 Гбайт (90%)
Библиотека кодирования : x264 core 138 r2356 a1d3d17
Настройки программы : cabac=1 / ref=8 / deblock=1:-2:-1 / analyse=0x3:0x113 / me=umh / subme=10 / psy=1 / psy_rd=1.00:0.05 / mixed_ref=1 / me_range=32 / chroma_me=1 / trellis=2 / 8x8dct=1 / cqm=0 / deadzone=21,11 / fast_pskip=0 / chroma_qp_offset=-3 / threads=3 / lookahead_threads=1 / sliced_threads=0 / nr=0 / decimate=0 / interlaced=0 / bluray_compat=0 / constrained_intra=0 / bframes=8 / b_pyramid=2 / b_adapt=2 / b_bias=0 / direct=3 / weightb=1 / open_gop=0 / weightp=2 / keyint=250 / keyint_min=25 / scenecut=40 / intra_refresh=0 / rc=2pass / mbtree=0 / bitrate=2161 / ratetol=1.0 / qcomp=0.60 / qpmin=0 / qpmax=69 / qpstep=4 / cplxblur=20.0 / qblur=0.5 / ip_ratio=1.40 / pb_ratio=1.30 / aq=1:1.00
Default : Да
Forced : Нет

Аудио
Идентификатор : 2
Формат : AC-3
Формат/Информация : Audio Coding 3
Расширение режима : CM (complete main)
Параметр Endianness формата : Big
Идентификатор кодека : A_AC3
Продолжительность : 1 ч. 28 м.
Вид битрейта : Постоянный
Битрейт : 192 Кбит/сек
Каналы : 2 канала
Расположение каналов : Front: L R
Частота : 48,0 КГц
Битовая глубина : 16 бит
Метод сжатия : С потерями
Размер потока : 122 Мбайт (8%)
Default : Да
Forced : Нет





   Похожие торренты   Торрент   Размер 
В этой теме нет новых непрочитанных сообщений. Яблоко раздора (1962) SATRip от New-Team

24 | 19

745.29 МБ

В этой теме нет новых непрочитанных сообщений. Яблоко раздора (1962) SATRip от New-Team

138 | 19

1.46 ГБ

В этой теме нет новых непрочитанных сообщений. Яблоко раздора (1962) SATRip

6 | 4

1.19 ГБ

В этой теме нет новых непрочитанных сообщений. Тайны Чапман. Яблоко раздора (2016) SATRip

23 | 5

687.48 МБ

В этой теме нет новых непрочитанных сообщений. Следствие вели. Яблоко раздора [эфир от 13.11] (2011) SATRip от RiperAM

12 | 2

461.87 МБ

В этой теме нет новых непрочитанных сообщений. ГМО. Еда раздора [06/12] (2014) SATRip

840 | 118

748.88 МБ

В этой теме нет новых непрочитанных сообщений. Яблоко Луны (2009) SATRip - КинозалSAT

3 | 3

699.9 МБ




Вы не можете начинать темы
Вы не можете отвечать на сообщения
Вы не можете редактировать свои сообщения
Вы не можете удалять свои сообщения
Вы не можете добавлять вложения

Перейти:  
 Вход
ppkBB3cker v.2 © 2008-2014 @ PPK
[ Time : 0.045s | 16 Queries | GZIP : Off ]

cron