img image001 image001 image001 image001 image001 image001 image001 image001 image001 image001 image001 image001 image001 image001 image001

Planets Sun Sun Sun
Статистика раздачи
Автор: Nickolas3434 | Размер: 752.51 МБ | Добавлен: 10 мар 2014
Раздают: 283    Качают: 116
Скачать торрент
Скачать торрент
Описание торрента

СообщениеДобавлено: 10 мар 2014 

Информация о фильме
Название: Тётушки
Год выхода: 2013
Жанр: Комедия, приключения
Режиссер: Александр Кананович
В ролях: Николай Ефремов, Никита Ефремов, Михаил Ефремов, Екатерина Васильева, Альберт Филозов, Ивар Калныньш, Валентина Теличкина, Мирдза Мартинсоне, Камиль Ларин, Татьяна Рудина

О фильме:
Чудеса становятся реальностью, особенно, если кому-то это очень сильно нужно. Героям фильма Маше и её деду, накануне Рождества грозит опасность о которой они ещё не подозревают. И поэтому они совершенно беззащитны перед грядущими неприятностями. Но помощь придёт совершенно с неожиданной стороны… Все мечты в эту волшебную ночь исполнятся самым невероятным образом - главное чтобы в сердце жила настоящая любовь…



Страна: Россия, Латвия
Студия: Forma Pro Films, Trogir Production
Продолжительность: 01:30:28
Перевод: Не требуется

Файл
Кодек: XviD
Качество: DVDRip
Видео: 720x400 (16:9), 1022 Кбит/с, 25 кадр/с
Звук: MP3, 128 Кбит/с, 48000 Гц, 2 канала (Стерео)
Субтитры: Нет



Общее
Полное имя : Tetyshki.2013.O.DVDRip.700Mb.avi
Формат : AVI
Формат/Информация : Audio Video Interleave
Размер файла : 753 Мбайт
Продолжительность : 1 ч. 30 м.
Общий поток : 1163 Кбит/сек
Программа кодирования : Lavf52.93.0

Видео
Идентификатор : 0
Формат : xvid
Идентификатор кодека : xvid
Продолжительность : 1 ч. 30 м.
Битрейт : 1022 Кбит/сек
Ширина : 720 пикселей
Высота : 400 пикселей
Соотношение сторон : 16:9
Частота кадров : 25,000 кадров/сек
Бит/(Пиксели*Кадры) : 0.142
Размер потока : 661 Мбайт (88%)

Аудио
Идентификатор : 1
Формат : MPEG Audio
Версия формата : Version 1
Профиль формата : Layer 3
Режим : Joint stereo
Расширение режима : MS Stereo
Идентификатор кодека : 55
Идентификатор кодека/Подсказка : MP3
Продолжительность : 1 ч. 30 м.
Вид битрейта : Постоянный
Битрейт : 128 Кбит/сек
Каналы : 2 канала
Частота : 48,0 КГц
Метод сжатия : С потерями
Размер потока : 82,8 Мбайт (11%)
Выравнивание : Соединение по промежуткам
Продолжительность промежутка : 24 мс. (0,60 видеокадр)
Время предзагрузки промежутка : 48 мс.
Библиотека кодирования : LAME3.98.4



   Похожие торренты   Торрент   Размер 
В этой теме нет новых непрочитанных сообщений. Тётушки (2013) DVDRip от ivandubskoj

331 | 60

697.04 МБ

В этой теме нет новых непрочитанных сообщений. Тётушки (2013) DVDRip | Лицензия

3421 | 989

1.46 ГБ

В этой теме нет новых непрочитанных сообщений. Тётушки (2013) DVDRip-AVC от FilmRus | Лицензия

736 | 309

1.46 ГБ

В этой теме нет новых непрочитанных сообщений. Тётушки (2013) WEB-DLRip

244 | 10

1.37 ГБ

В этой теме нет новых непрочитанных сообщений. Тётушки (2013) DVD-5 | Лицензия

194 | 88

4.27 ГБ

В этой теме нет новых непрочитанных сообщений. Тётушки (2013) WEB-DLRip | Лицензия

117 | 6

703.79 МБ

В этой теме нет новых непрочитанных сообщений. Уроки тетушки Совы. Арифметика-малышка. (2004) DVDRip

453 | 34

1.16 ГБ




Вы не можете начинать темы
Вы не можете отвечать на сообщения
Вы не можете редактировать свои сообщения
Вы не можете удалять свои сообщения
Вы не можете добавлять вложения

Перейти:  
Для Мосгорсуда, Роскомнадзора и рекламодателей: mosgorsud-torrent[собачка]yandex.ru
 Вход
ppkBB3cker v.2 © 2008-2014 @ PPK
[ Time : 0.028s | 18 Queries | GZIP : Off ]

Торрент трекер RUTOR.IN, Не можете зайти на rutor.org? Какой новый адрес рутор? Какое зеркало рутор? Не работает rutor.org и зеркала? Тогда наш торрент специально для вас. Rutor.in неофициальное зеркало rutor. В случае если у Вас заблокирован rutor или вдруг Вы не можете на него зайти, то Вы без труда сможете скачать бесплатно и без рекламы последние новинки кино, игр, сериалов и прочего у нас, на Rutor.in. Не нужно использовать прокси, чтобы зайти на рутор, достаточно воспользоваться нашим ресурсом. Все новые фильмы, игры, сериалы, книги и музыка за 2013 и 2014 годы через торрент бесплатно. Скачивайте фильмы в хорошем качестве, игры для пк, xbox, playstation без регистрации. У нас вы найдете новые Зарубежные сериалы и Русские сериалы 2013, 2014, 2015 годов. Оставайтесь с нами, качайте любимые фильмы, игры, сериалы, книги и музыку.