img image001 image001 image001 image001 image001 image001 image001 image001 image001 image001 image001 image001 image001 image001 image001

Planets Sun Sun Sun
Статистика раздачи
Автор: Nickolas3434 | Размер: 1.09 ГБ | Добавлен: 10 мар 2014
Раздают: 19    Качают: 22
Скачать торрент
Скачать торрент
Описание торрента

СообщениеДобавлено: 10 мар 2014 

Страна: СССР
Производство: Творческое объединение писателей и киноработников, Мосфильм, Unit Four
Жанр: фантастика, драма
Год выпуска: 1972
Продолжительность: 02:46:54

Перевод: Не требуется
Оригинальная аудиодорожка: русский
Cубтитры: нет

Режиссер: Андрей Тарковский

В ролях:
Донатас Банионис, Наталья Бондарчук, Юри Ярвет, Николай Гринько, Владислав Дворжецкий, Юлиан Семенов, Анатолий Солоницын, Ольга Барнет, Виталик Кердимун, Ольга Кизилова, Татьяна Малых, Александр Мишарин, Баграт Оганесян, Тамара Огородникова, Сос Саркисян, Валентина Суменова, Георгий Тейх, Раймундас Банионис...

Описание:
На космическую станцию, сотрудники которой давно и тщетно пытаются сладить с загадкой планеты Солярис, покрытой Океаном, прибывает новый обитатель, психолог Крис Кельвин, чтобы разобраться в странных сообщениях, поступающих со станции, и «закрыть» ее вместе со всей бесплодной «соляристикой». Поначалу ему кажется, что немногие уцелевшие на станции ученые сошли с ума. Потом он и сам становится жертвой жуткого наваждения: ему является его бывшая возлюбленная Хари, некогда на земле покончившая с собой...






Исходник: Blu-ray 1080p
Тип релиза: BDRip
Контейнер: AVI

Видео: 720x304 (2,35:1), 23,976 fps, XviD ~ 801 kbps avg, 0.153 bit/pixel
Аудио: 48 kHz, MP3 2.0, 128 kbps

Раздача от:
Общее
Полное имя : Solaris.1972.BDRip1,46_[New-team]_by_AVP_Studio.avi
Формат : AVI
Формат/Информация : Audio Video Interleave
Размер файла : 1,09 Гбайт
Продолжительность : 2 ч. 46 м.
Общий поток : 938 Кбит/сек
Программа кодирования : VirtualDubModRus 1.5.10.2 (build 2542/release)
Библиотека кодирования : VirtualDubMod build 2542/release

Видео
Идентификатор : 0
Формат : MPEG-4 Visual
Профиль формата : Advanced Simple@L5
Параметр BVOP формата : 1
Параметр QPel формата : Нет
Параметр GMC формата : Без точки перехода
Параметр матрицы формата : Выборочная
Идентификатор кодека : XVID
Идентификатор кодека/Подсказка : XviD
Продолжительность : 2 ч. 46 м.
Битрейт : 801 Кбит/сек
Ширина : 720 пикселей
Высота : 304 пикселя
Соотношение сторон : 2,35:1
Частота кадров : 23,976 кадра/сек
Цветовое пространство : YUV
Субдискретизация насыщенности : 4:2:0
Битовая глубина : 8 бит
Тип развёртки : Прогрессивная
Метод сжатия : С потерями
Бит/(Пиксели*Кадры) : 0.153
Размер потока : 956 Мбайт (85%)
Библиотека кодирования : XviD 73

Аудио
Идентификатор : 1
Формат : MPEG Audio
Версия формата : Version 1
Профиль формата : Layer 3
Идентификатор кодека : 55
Идентификатор кодека/Подсказка : MP3
Продолжительность : 2 ч. 46 м.
Вид битрейта : Постоянный
Битрейт : 128 Кбит/сек
Каналы : 2 канала
Частота : 48,0 КГц
Метод сжатия : С потерями
Размер потока : 153 Мбайт (14%)
Выравнивание : Соединение по промежуткам
Продолжительность промежутка : 42 мс. (1,00 видеокадр)
Время предзагрузки промежутка : 504 мс.
Библиотека кодирования : LAME3.99r
Настройки программы : -m s -V 4 -q 2 -lowpass 17 -b 128



Эпизод, в котором Бертон едет на машине по бесконечным тоннелям, развязкам, эстакадам, снимали в Токио («Городе будущего»).
Сцена в зеркальной комнате была снята, но она не вошла в окончательный монтаж. Режиссёр изъял её из фильма. Сейчас этот загадочный шаг поклонники Тарковского связывают с происками цензуры. На самом деле цензуру и редактуру эта сцена не волновала, и мотивы у режиссёра, скорее всего, были внутренними. Известно, что он не раз возражал против того в фильмах, что казалось ему «слишком красивым».
Сцена с невесомостью снималась при помощи двух операторских кранов, на одном из которых был закреплён киносъёмочный аппарат, а на другом располагались актёры.
Станислав Лем о фильме:
«Солярис» — это книга, из-за которой мы здорово поругались с Тарковским. Я просидел шесть недель в Москве, пока мы спорили о том, как делать фильм, потом обозвал его дураком и уехал домой… Тарковский в фильме хотел показать, что космос очень противен и неприятен, а вот на Земле — прекрасно. Я-то писал и думал совсем наоборот



   Похожие торренты   Торрент   Размер 
В этой теме нет новых непрочитанных сообщений. Солярис (1972) BDRip от New-Team

116 | 24

2.19 ГБ

В этой теме нет новых непрочитанных сообщений. Солярис (1972) BDRip-AVC от New-Team

66 | 27

2.91 ГБ

В этой теме нет новых непрочитанных сообщений. Солярис (1972) BDRip-AVC от ExKinoRay

9 | 3

3.43 ГБ

В этой теме нет новых непрочитанных сообщений. Солярис (1972) BDRip от HQCLUB

74 | 4

2.9 ГБ

В этой теме нет новых непрочитанных сообщений. Солярис (1972) BDRip-AVC | iPad

17 | 7

3.91 ГБ

В этой теме нет новых непрочитанных сообщений. Солярис (1972) BDRip 1080p

68 | 22

11.47 ГБ

В этой теме нет новых непрочитанных сообщений. Солярис (1972) BDRip от MediaClub | КПК

7 | 3

758.84 МБ




Вы не можете начинать темы
Вы не можете отвечать на сообщения
Вы не можете редактировать свои сообщения
Вы не можете удалять свои сообщения
Вы не можете добавлять вложения

Перейти:  
Для Мосгорсуда, Роскомнадзора и рекламодателей: mosgorsud-torrent[собачка]yandex.ru
 Вход
ppkBB3cker v.2 © 2008-2014 @ PPK
[ Time : 0.605s | 15 Queries | GZIP : On ]

Торрент трекер RUTOR.IN, Не можете зайти на rutor.org? Какой новый адрес рутор? Какое зеркало рутор? Не работает rutor.org и зеркала? Тогда наш торрент специально для вас. Rutor.in неофициальное зеркало rutor. В случае если у Вас заблокирован rutor или вдруг Вы не можете на него зайти, то Вы без труда сможете скачать бесплатно и без рекламы последние новинки кино, игр, сериалов и прочего у нас, на Rutor.in. Не нужно использовать прокси, чтобы зайти на рутор, достаточно воспользоваться нашим ресурсом. Все новые фильмы, игры, сериалы, книги и музыка за 2013 и 2014 годы через торрент бесплатно. Скачивайте фильмы в хорошем качестве, игры для пк, xbox, playstation без регистрации. У нас вы найдете новые Зарубежные сериалы и Русские сериалы 2013, 2014, 2015 годов. Оставайтесь с нами, качайте любимые фильмы, игры, сериалы, книги и музыку.