img image001 image001 image001 image001 image001 image001 image001 image001 image001 image001 image001 image001 image001 image001 image001

Planets Sun Sun Sun
Статистика раздачи
Автор: Nickolas3434 | Размер: 7.5 ГБ | Добавлен: 11 мар 2014, 12:57
Раздают: 46    Качают: 46
Скачать торрент
Скачать торрент
Описание торрента

СообщениеДобавлено: 11 мар 2014, 12:57 


Информация о фильмеОт Буга до Вислы
Оригинальное название:
Год выхода: 1980
Жанр: Военный
Режиссер: Тимофей Левчук
В ролях: Михай Волонтир, Лесь Сердюк, Николай Гринько, Анатолий Пазенко, Евгений Паперный, Леонид Яновский, Александр Денисов, Юрий Каморный, Михаил Горносталь, Улдис Пуцитис, Улдис Лиелдидж, Андрей Ростоцкий, Иван Гаврилюк, Яков Козлов, Станислав Микульский, Петерис Гаудиньш, Зураб Капианидзе, Александр Мовчан, Осип Найдук, Евгений Пашин, Юрис Стренга, Наталия Сумская, Лембит Ульфсак, Богдан Ступка, Януш Зербст, Юрий Сатаров, Марек Пражановский, Владимир Опанасенко, Иоанна Осмакевич, Владимир Бродский, Андрей Подубинский

О фильме: Картина повествует о последнем рейде украинской партизанской дивизии имени С. А. Ковпака по руководством П. П. Вершигоры в тыл врага в 1943-1944 годах, выходе ее к государственной границе СССР и Польши, интернациональной помощи польскому народу в освобождении от фашистких захватчиков.

Страна: СССР
Студия: киностудия им. А.П.Довженко
Продолжительность: 2 х ~ 01:06:00
Язык: Русский

Файл
Кодек: MPEG-2
Качество: DVD-9
Видео: PAL 16:9 (720x576) VBR
Звук: Русский (Dolby AC3, 2 ch), русский (Dolby AC3, 6 ch)





Title: Локальный диск
Size: 7.50 Gb ( 7 868 522 KBytes ) - DVD-9
Enabled regions: 1, 2, 3, 4, 5, 6, 7, 8

VTS_01 :
Play Length: 00:00:28
Video: PAL 4:3 (720x576) VBR
Audio:
English (Dolby AC3, 2 ch)

VTS_02 :
Play Length: 01:04:53
Video: PAL 16:9 (720x576) VBR, Auto Pan&Scan
Audio:
Russian (Dolby AC3, 2 ch)
Russian (Dolby AC3, 6 ch)

VTS_03 :
Play Length: 01:07:37
Video: PAL 16:9 (720x576) VBR, Auto Pan&Scan
Audio:
Russian (Dolby AC3, 2 ch)
Russian (Dolby AC3, 6 ch)

Menu Video:
PAL 4:3 (720x576) VBR
Menu Subtitles:
Not specified
Menu English Language Unit :
Root Menu


Общее
Полное имя : D:1АААОТ БУГА ДО ВИСЛЫVIDEO_TSVTS_02_1.VOB
Формат : MPEG-PS
Размер файла : 1024 Мбайт
Продолжительность : 17 м.
Общий поток : 8069 Кбит/сек

Видео
Идентификатор : 224 (0xE0)
Формат : MPEG Video
Версия формата : Version 2
Профиль формата : Main@Main
Параметр BVOP формата : Да
Параметр матрицы формата : По умолчанию
Параметр GOP формата : M=3, N=12
Продолжительность : 17 м.
Битрейт : 7374 Кбит/сек
Ширина : 720 пикселей
Высота : 576 пикселей
Соотношение сторон : 16:9
Частота кадров : 25,000 кадров/сек
Стандарт вещания : PAL
Цветовое пространство : YUV
Субдискретизация насыщенности : 4:2:0
Битовая глубина : 8 бит
Тип развёртки : Чересстрочная
Порядок развёртки : Нижнее поле первое
Метод сжатия : С потерями
Бит/(Пиксели*Кадры) : 0.711
TimeCode_FirstFrame : 00:00:00:00
TimeCode_Source : Group of pictures header
Размер потока : 930 Мбайт (91%)

Аудио #1
Идентификатор : 189 (0xBD)-128 (0x80)
Формат : AC-3
Формат/Информация : Audio Coding 3
Расширение режима : CM (complete main)
Параметр Endianness формата : Big
Режим смешивания : DVD-Video
Продолжительность : 17 м.
Вид битрейта : Постоянный
Битрейт : 192 Кбит/сек
Каналы : 2 канала
Расположение каналов : Front: L R
Частота : 48,0 КГц
Битовая глубина : 16 бит
Метод сжатия : С потерями
Задержка видео : -80 мс.
Размер потока : 24,4 Мбайт (2%)

Аудио #2
Идентификатор : 189 (0xBD)-129 (0x81)
Формат : AC-3
Формат/Информация : Audio Coding 3
Расширение режима : CM (complete main)
Параметр Endianness формата : Big
Режим смешивания : DVD-Video
Продолжительность : 17 м.
Вид битрейта : Постоянный
Битрейт : 384 Кбит/сек
Каналы : 6 каналов
Расположение каналов : Front: L C R, Side: L R, LFE
Частота : 48,0 КГц
Битовая глубина : 16 бит
Метод сжатия : С потерями
Задержка видео : -80 мс.
Размер потока : 48,7 Мбайт (5%)

Меню





   Похожие торренты   Торрент   Размер 
В этой теме нет новых непрочитанных сообщений. От Буга до Вислы (1980) DVDRip - Generalfilm

105 | 9

2.04 ГБ

В этой теме нет новых непрочитанных сообщений. Уга Буга / Ooga Booga (2013) DVDRip от CINEMANIA | L2

591 | 54

1.03 ГБ

В этой теме нет новых непрочитанных сообщений. Вам и не снилось (1980) DVD9

35 | 11

6.62 ГБ

В этой теме нет новых непрочитанных сообщений. Благочестивая Марта (1980) DVD9

4 | 6

5.87 ГБ

В этой теме нет новых непрочитанных сообщений. Скупой / L'avare (1980) DVD9

0 | 1

7.03 ГБ

В этой теме нет новых непрочитанных сообщений. Бум 1-2 / La boum 1-2 (1980-1982) DVD9 от Odyzic

2 | 5

7.84 ГБ

В этой теме нет новых непрочитанных сообщений. Тегеран-43 (1980) DVD9 | Полная реставрация

11 | 20

7.8 ГБ




Вы не можете начинать темы
Вы не можете отвечать на сообщения
Вы не можете редактировать свои сообщения
Вы не можете удалять свои сообщения
Вы не можете добавлять вложения

Перейти:  
Для Мосгорсуда, Роскомнадзора и рекламодателей: mosgorsud-torrent[собачка]yandex.ru
Настройки
ppkBB3cker v.2 © 2008-2014 @ PPK
[ Time : 0.017s | 16 Queries | GZIP : Off ]
CGP [Extreme] output time : 0.00012s | 0 Queries | GZIP : Off

Торрент трекер RUTOR.IN, Не можете зайти на rutor.org? Какой новый адрес рутор? Какое зеркало рутор? Не работает rutor.org и зеркала? Тогда наш торрент специально для вас. Rutor.in неофициальное зеркало rutor. В случае если у Вас заблокирован rutor или вдруг Вы не можете на него зайти, то Вы без труда сможете скачать бесплатно и без рекламы последние новинки кино, игр, сериалов и прочего у нас, на Rutor.in. Не нужно использовать прокси, чтобы зайти на рутор, достаточно воспользоваться нашим ресурсом. Все новые фильмы, игры, сериалы, книги и музыка за 2013 и 2014 годы через торрент бесплатно. Скачивайте фильмы в хорошем качестве, игры для пк, xbox, playstation без регистрации. У нас вы найдете новые Зарубежные сериалы и Русские сериалы 2013, 2014, 2015 годов. Оставайтесь с нами, качайте любимые фильмы, игры, сериалы, книги и музыку.