img image001 image001 image001 image001 image001 image001 image001 image001 image001 image001 image001 image001 image001 image001 image001

Planets Sun Sun Sun
Статистика раздачи
Автор: Nickolas3434 | Размер: 697.04 МБ | Добавлен: 11 мар 2014
Раздают: 331    Качают: 60
Скачать торрент
Скачать торрент
Описание торрента

СообщениеДобавлено: 11 мар 2014 

Информация о фильме
Название: Тётушки
Год выхода: 2013
Жанр: Комедия, приключения
Режиссер: Александр Кананович
В ролях: Николай Ефремов, Никита Ефремов, Михаил Ефремов, Екатерина Васильева, Альберт Филозов, Ивар Калныньш, Валентина Теличкина, Мирдза Мартинсоне, Камиль Ларин, Татьяна Рудина

О фильме:
Чудеса становятся реальностью, особенно, если кому-то это очень сильно нужно. Героям фильма Маше и её деду, накануне Рождества грозит опасность о которой они ещё не подозревают. И поэтому они совершенно беззащитны перед грядущими неприятностями. Но помощь придёт совершенно с неожиданной стороны… Все мечты в эту волшебную ночь исполнятся самым невероятным образом - главное чтобы в сердце жила настоящая любовь…



Страна: Россия, Латвия
Студия: Forma Pro Films, Trogir Production
Продолжительность: 01:30:28
Перевод: Не требуется

Файл
Кодек: XviD
Качество: DVDRip
Видео: 656x368 (16:9), 942 Кбит/с, 25 кадр/с
Звук: MP3, 128 Кбит/с, 48000 Гц, 2 канала (Стерео)
Субтитры: Нет



Автор рипа - ivandubskoj

Общее
Полное имя : Tetyshki.2013.DVDRip.700Mb.avi
Формат : AVI
Формат/Информация : Audio Video Interleave
Размер файла : 697 Мбайт
Продолжительность : 1 ч. 30 м.
Общий поток : 1077 Кбит/сек
Название фильма : Тётушки (2013) DVDRip
Жанр : Комедия, приключения, семейный, фэнтези
Дата записи : 10.03.2013
Программа кодирования : VirtualDubMod 1.5.10.3 (build 2550/release)
Библиотека кодирования : VirtualDubMod build 2550/release
Правообладатель : rip by ivandubskoj

Видео
Идентификатор : 0
Формат : MPEG-4 Visual
Профиль формата : Advanced Simple@L5
Параметр BVOP формата : 1
Параметр QPel формата : Нет
Параметр GMC формата : Без точки перехода
Параметр матрицы формата : Default (H.263)
Идентификатор кодека : XVID
Идентификатор кодека/Подсказка : XviD
Продолжительность : 1 ч. 30 м.
Битрейт : 940 Кбит/сек
Ширина : 656 пикселей
Высота : 368 пикселей
Соотношение сторон : 16:9
Частота кадров : 25,000 кадров/сек
Цветовое пространство : YUV
Субдискретизация насыщенности : 4:2:0
Битовая глубина : 8 бит
Тип развёртки : Прогрессивная
Метод сжатия : С потерями
Бит/(Пиксели*Кадры) : 0.156
Размер потока : 608 Мбайт (87%)
Библиотека кодирования : XviD 73

Аудио
Идентификатор : 1
Формат : MPEG Audio
Версия формата : Version 1
Профиль формата : Layer 3
Идентификатор кодека : 55
Идентификатор кодека/Подсказка : MP3
Продолжительность : 1 ч. 30 м.
Вид битрейта : Постоянный
Битрейт : 128 Кбит/сек
Каналы : 2 канала
Частота : 48,0 КГц
Метод сжатия : С потерями
Размер потока : 82,8 Мбайт (12%)
Выравнивание : Соединение по промежуткам
Продолжительность промежутка : 40 мс. (1,00 видеокадр)
Время предзагрузки промежутка : 504 мс.
Заголовок : Russian
Библиотека кодирования : LAME3.99r
Настройки программы : -m s -V 4 -q 2 -lowpass 17 -b 128




   Похожие торренты   Торрент   Размер 
В этой теме нет новых непрочитанных сообщений. Тётушки (2013) DVDRip

283 | 116

752.51 МБ

В этой теме нет новых непрочитанных сообщений. Тётушки (2013) DVDRip | Лицензия

3421 | 989

1.46 ГБ

В этой теме нет новых непрочитанных сообщений. Тётушки (2013) DVDRip-AVC от FilmRus | Лицензия

736 | 309

1.46 ГБ

В этой теме нет новых непрочитанных сообщений. Тётушки (2013) DVD-5 | Лицензия

194 | 88

4.27 ГБ

В этой теме нет новых непрочитанных сообщений. Тётушки (2013) WEB-DLRip

244 | 10

1.37 ГБ

В этой теме нет новых непрочитанных сообщений. Тётушки (2013) WEB-DLRip | Лицензия

117 | 6

703.79 МБ

В этой теме нет новых непрочитанных сообщений. Уроки тетушки Совы. Азбука-малышка. (2005) DVDRip

350 | 29

1.65 ГБ




Вы не можете начинать темы
Вы не можете отвечать на сообщения
Вы не можете редактировать свои сообщения
Вы не можете удалять свои сообщения
Вы не можете добавлять вложения

Перейти:  
Для Мосгорсуда, Роскомнадзора и рекламодателей: mosgorsud-torrent[собачка]yandex.ru
 Вход
ppkBB3cker v.2 © 2008-2014 @ PPK
[ Time : 0.113s | 15 Queries | GZIP : Off ]

Торрент трекер RUTOR.IN, Не можете зайти на rutor.org? Какой новый адрес рутор? Какое зеркало рутор? Не работает rutor.org и зеркала? Тогда наш торрент специально для вас. Rutor.in неофициальное зеркало rutor. В случае если у Вас заблокирован rutor или вдруг Вы не можете на него зайти, то Вы без труда сможете скачать бесплатно и без рекламы последние новинки кино, игр, сериалов и прочего у нас, на Rutor.in. Не нужно использовать прокси, чтобы зайти на рутор, достаточно воспользоваться нашим ресурсом. Все новые фильмы, игры, сериалы, книги и музыка за 2013 и 2014 годы через торрент бесплатно. Скачивайте фильмы в хорошем качестве, игры для пк, xbox, playstation без регистрации. У нас вы найдете новые Зарубежные сериалы и Русские сериалы 2013, 2014, 2015 годов. Оставайтесь с нами, качайте любимые фильмы, игры, сериалы, книги и музыку.