img image001 image001 image001 image001 image001 image001 image001 image001 image001 image001 image001 image001 image001 image001 image001

Planets Sun Sun Sun
Статистика раздачи
Автор: Nickolas3434 | Размер: 2.91 ГБ | Добавлен: 11 мар 2014
Раздают: 66    Качают: 27
Скачать торрент
Скачать торрент
Описание торрента

СообщениеДобавлено: 11 мар 2014 

Страна: СССР
Производство: Творческое объединение писателей и киноработников, Мосфильм, Unit Four
Жанр: фантастика, драма
Год выпуска: 1972
Продолжительность: 02:46:54

Перевод: Не требуется
Оригинальная аудиодорожка: русский
Cубтитры: русский, английский

Режиссер: Андрей Тарковский

В ролях:
Донатас Банионис, Наталья Бондарчук, Юри Ярвет, Николай Гринько, Владислав Дворжецкий, Юлиан Семенов, Анатолий Солоницын, Ольга Барнет, Виталик Кердимун, Ольга Кизилова, Татьяна Малых, Александр Мишарин, Баграт Оганесян, Тамара Огородникова, Сос Саркисян, Валентина Суменова, Георгий Тейх, Раймундас Банионис...

Описание:
На космическую станцию, сотрудники которой давно и тщетно пытаются сладить с загадкой планеты Солярис, покрытой Океаном, прибывает новый обитатель, психолог Крис Кельвин, чтобы разобраться в странных сообщениях, поступающих со станции, и «закрыть» ее вместе со всей бесплодной «соляристикой». Поначалу ему кажется, что немногие уцелевшие на станции ученые сошли с ума. Потом он и сам становится жертвой жуткого наваждения: ему является его бывшая возлюбленная Хари, некогда на земле покончившая с собой...






Исходник: Blu-ray 1080p
Тип релиза: BDRip-AVC
Контейнер: MKV

Видео: 1024x432 (2,40:1), 23,976 fps, H264 ~ 1660 kbps avg, 0.157 bit/pixel
Аудио: 48 kHz, Dolby Digital AC3 5.1, 448 kbps Русский
Аудио: 48 kHz, Dolby Digital AC3 5.1, 384 kbps Английский (DUB)
Оригинальная навигация по главам: есть
Субтитры: SoftSub (srt)

Раздача от:
Общее
Полное имя : Solaris.1972.BDRip-AVC_[New-team]_by_AVP_Studio.mkv
Формат : Matroska
Версия формата : Version 4 / Version 2
Размер файла : 2,91 Гбайт
Продолжительность : 2 ч. 46 м.
Общий поток : 2494 Кбит/сек
Название фильма : Solaris.1972.BDRip-AVC_[New-team]_by_AVP_Studio
Дата кодирования : UTC 2014-03-10 13:34:56
Программа кодирования : mkvmerge v6.7.0 ('Back to the Ground') 64bit built on Jan 8 2014 15:10:52
Библиотека кодирования : libebml v1.3.0 + libmatroska v1.4.1

Видео
Идентификатор : 1
Формат : AVC
Формат/Информация : Advanced Video Codec
Профиль формата : High@L4.1
Параметр CABAC формата : Да
Параметр ReFrames формата : 8 кадров
Идентификатор кодека : V_MPEG4/ISO/AVC
Продолжительность : 2 ч. 46 м.
Битрейт : 1660 Кбит/сек
Ширина : 1024 пикселя
Высота : 432 пикселя
Соотношение сторон : 2,40:1
Режим частоты кадров : Постоянный
Частота кадров : 23,976 кадра/сек
Цветовое пространство : YUV
Субдискретизация насыщенности : 4:2:0
Битовая глубина : 8 бит
Тип развёртки : Прогрессивная
Бит/(Пиксели*Кадры) : 0.157
Размер потока : 1,88 Гбайт (65%)
Заголовок : Источник BDRemux
Библиотека кодирования : x264 core 138 r2356 a1d3d17
Настройки программы : cabac=1 / ref=8 / deblock=1:-3:-2 / analyse=0x3:0x113 / me=umh / subme=10 / psy=1 / psy_rd=1.00:0.05 / mixed_ref=1 / me_range=32 / chroma_me=1 / trellis=2 / 8x8dct=1 / cqm=0 / deadzone=21,11 / fast_pskip=0 / chroma_qp_offset=-3 / threads=3 / lookahead_threads=1 / sliced_threads=0 / nr=0 / decimate=0 / interlaced=0 / bluray_compat=0 / constrained_intra=0 / bframes=8 / b_pyramid=2 / b_adapt=2 / b_bias=0 / direct=3 / weightb=1 / open_gop=0 / weightp=2 / keyint=240 / keyint_min=24 / scenecut=40 / intra_refresh=0 / rc_lookahead=40 / rc=2pass / mbtree=1 / bitrate=1660 / ratetol=1.0 / qcomp=0.60 / qpmin=0 / qpmax=69 / qpstep=4 / cplxblur=20.0 / qblur=0.5 / ip_ratio=1.40 / aq=1:1.00
Язык : Russian
Default : Да
Forced : Нет

Аудио #1
Идентификатор : 2
Формат : AC-3
Формат/Информация : Audio Coding 3
Расширение режима : CM (complete main)
Параметр Endianness формата : Big
Идентификатор кодека : A_AC3
Продолжительность : 2 ч. 46 м.
Вид битрейта : Постоянный
Битрейт : 448 Кбит/сек
Каналы : 6 каналов
Расположение каналов : Front: L C R, Side: L R, LFE
Частота : 48,0 КГц
Битовая глубина : 16 бит
Метод сжатия : С потерями
Задержка видео : 4 с. 986 мс.
Размер потока : 535 Мбайт (18%)
Заголовок : Источник BDRemux Dolby Digital 5,1 448kb
Язык : Russian
Default : Да
Forced : Нет

Аудио #2
Идентификатор : 3
Формат : AC-3
Формат/Информация : Audio Coding 3
Расширение режима : CM (complete main)
Параметр Endianness формата : Big
Идентификатор кодека : A_AC3
Продолжительность : 2 ч. 46 м.
Вид битрейта : Постоянный
Битрейт : 384 Кбит/сек
Каналы : 6 каналов
Расположение каналов : Front: L C R, Side: L R, LFE
Частота : 48,0 КГц
Битовая глубина : 16 бит
Метод сжатия : С потерями
Размер потока : 458 Мбайт (15%)
Заголовок : Источник BDRemux Dolby Digital 5,1384kb DUB
Язык : English
Default : Нет
Forced : Нет

Текст #1
Идентификатор : 4
Формат : UTF-8
Идентификатор кодека : S_TEXT/UTF8
Идентификатор кодека/Информация : UTF-8 Plain Text
Заголовок : Источник BDRemux
Язык : Russian
Default : Нет
Forced : Нет

Текст #2
Идентификатор : 5
Формат : UTF-8
Идентификатор кодека : S_TEXT/UTF8
Идентификатор кодека/Информация : UTF-8 Plain Text
Заголовок : Источник BDRemux
Язык : English
Default : Нет
Forced : Нет

Меню
00:00:00.000 : en:00:00:00.000
00:03:12.067 : en:00:03:12.067
00:11:26.936 : en:00:11:26.936
00:17:58.828 : en:00:17:58.828
00:21:04.763 : en:00:21:04.763
00:26:18.118 : en:00:26:18.118
00:28:41.428 : en:00:28:41.428
00:33:30.175 : en:00:33:30.175
00:38:24.177 : en:00:38:24.177
00:43:13.508 : en:00:43:13.508
00:45:39.737 : en:00:45:39.737
00:51:48.689 : en:00:51:48.689
00:57:36.453 : en:00:57:36.453
01:04:29.991 : en:01:04:29.991
01:12:06.948 : en:01:12:06.948
01:19:22.883 : en:01:19:22.883
01:22:20.686 : en:01:22:20.686
01:27:18.150 : en:01:27:18.150
01:30:58.578 : en:01:30:58.578
01:34:52.270 : en:01:34:52.270
01:39:09.485 : en:01:39:09.485
01:44:37.563 : en:01:44:37.563
01:49:49.541 : en:01:49:49.541
01:55:29.506 : en:01:55:29.506
02:08:26.032 : en:02:08:26.032
02:12:00.246 : en:02:12:00.246
02:14:26.350 : en:02:14:26.350
02:21:49.626 : en:02:21:49.626
02:27:22.876 : en:02:27:22.876
02:33:36.457 : en:02:33:36.457
02:37:14.175 : en:02:37:14.175
02:41:03.362 : en:02:41:03.362



Эпизод, в котором Бертон едет на машине по бесконечным тоннелям, развязкам, эстакадам, снимали в Токио («Городе будущего»).
Сцена в зеркальной комнате была снята, но она не вошла в окончательный монтаж. Режиссёр изъял её из фильма. Сейчас этот загадочный шаг поклонники Тарковского связывают с происками цензуры. На самом деле цензуру и редактуру эта сцена не волновала, и мотивы у режиссёра, скорее всего, были внутренними. Известно, что он не раз возражал против того в фильмах, что казалось ему «слишком красивым».
Сцена с невесомостью снималась при помощи двух операторских кранов, на одном из которых был закреплён киносъёмочный аппарат, а на другом располагались актёры.
Станислав Лем о фильме:
«Солярис» — это книга, из-за которой мы здорово поругались с Тарковским. Я просидел шесть недель в Москве, пока мы спорили о том, как делать фильм, потом обозвал его дураком и уехал домой… Тарковский в фильме хотел показать, что космос очень противен и неприятен, а вот на Земле — прекрасно. Я-то писал и думал совсем наоборот



   Похожие торренты   Торрент   Размер 
В этой теме нет новых непрочитанных сообщений. Солярис (1972) BDRip от New-Team

116 | 24

2.19 ГБ

В этой теме нет новых непрочитанных сообщений. Солярис (1972) BDRip от New-Team

19 | 22

1.09 ГБ

В этой теме нет новых непрочитанных сообщений. Солярис (1972) BDRip-AVC от ExKinoRay

9 | 3

3.43 ГБ

В этой теме нет новых непрочитанных сообщений. Солярис (1972) BDRip от HQCLUB

74 | 4

2.9 ГБ

В этой теме нет новых непрочитанных сообщений. Солярис (1972) BDRip-AVC | iPad

17 | 7

3.91 ГБ

В этой теме нет новых непрочитанных сообщений. Солярис (1972) BDRip 1080p

68 | 22

11.47 ГБ

В этой теме нет новых непрочитанных сообщений. Солярис (1972) BDRip от MediaClub | КПК

7 | 3

758.84 МБ




Вы не можете начинать темы
Вы не можете отвечать на сообщения
Вы не можете редактировать свои сообщения
Вы не можете удалять свои сообщения
Вы не можете добавлять вложения

Перейти:  
Для Мосгорсуда, Роскомнадзора и рекламодателей: mosgorsud-torrent[собачка]yandex.ru
 Вход
ppkBB3cker v.2 © 2008-2014 @ PPK
[ Time : 0.025s | 18 Queries | GZIP : On ]

Торрент трекер RUTOR.IN, Не можете зайти на rutor.org? Какой новый адрес рутор? Какое зеркало рутор? Не работает rutor.org и зеркала? Тогда наш торрент специально для вас. Rutor.in неофициальное зеркало rutor. В случае если у Вас заблокирован rutor или вдруг Вы не можете на него зайти, то Вы без труда сможете скачать бесплатно и без рекламы последние новинки кино, игр, сериалов и прочего у нас, на Rutor.in. Не нужно использовать прокси, чтобы зайти на рутор, достаточно воспользоваться нашим ресурсом. Все новые фильмы, игры, сериалы, книги и музыка за 2013 и 2014 годы через торрент бесплатно. Скачивайте фильмы в хорошем качестве, игры для пк, xbox, playstation без регистрации. У нас вы найдете новые Зарубежные сериалы и Русские сериалы 2013, 2014, 2015 годов. Оставайтесь с нами, качайте любимые фильмы, игры, сериалы, книги и музыку.