img image001 image001 image001 image001 image001 image001 image001 image001 image001 image001 image001 image001 image001 image001 image001

Planets Sun Sun Sun
Статистика раздачи
Автор: Nickolas3434 | Размер: 1.46 ГБ | Добавлен: 11 мар 2014
Раздают: 136    Качают: 30
Скачать торрент
Скачать торрент
Описание торрента

СообщениеДобавлено: 11 мар 2014 

Страна: СССР
Производство: Мосфильм

Жанр: боевик, драма, криминал
Год выпуска: 1987
Продолжительность: 01:36:04

Перевод: не требуется
Оригинальная аудиодорожка: русский
Cубтитры: нет

Режиссер:Александр Прошкин

В ролях:
Валерий Приемыхов, Анатолий Папанов, Виктор Степанов, Нина Усатова, Зоя Буряк, Юрий Кузнецов, Владимир Кашпур, Сергей Власов, Владимир Головин, Андрей Дударенко, Александр Завьялов, Алексей Колесник, Виктор Косых, Борис Плотников, Елизавета Солодова, Д.Карпова, К.Лабутин, Татьяна Лебедькова, С.Мартанов, В.Назаров...

Описание:
Двое бывших политзаключённых, недавно вышедших из лагеря, вступают в схватку с бандой амнистированных уголовников. Победу приходится оплатить дорогой ценой.
Почти детективная история неравного поединка заканчивается и оптимистически, и трагически. Время действия — 1953 год, страна на пороге больших перемен…





Исходник: DVD9
Тип релиза: DVDRip
Контейнер: AVI

Видео: 704x528 (4:3), 25 fps, XviD ~ 1712 kbps avg, 0.184 bit/pixel
Аудио: 48 kHz, Dolby Digital AC3 5.1, 448 kbps

Раздача от:
Общее
Полное имя : Holodnoe.leto.pyatdesyat.tretego.1987_[New-team]_by_AVP_Studio.avi
Формат : AVI
Формат/Информация : Audio Video Interleave
Размер файла : 1,46 Гбайт
Продолжительность : 1 ч. 36 м.
Общий поток : 2170 Кбит/сек
Программа кодирования : VirtualDubModRus 1.5.10.2 (build 2542/release)
Библиотека кодирования : VirtualDubMod build 2542/release

Видео
Идентификатор : 0
Формат : MPEG-4 Visual
Профиль формата : Advanced Simple@L5
Параметр BVOP формата : 1
Параметр QPel формата : Нет
Параметр GMC формата : Без точки перехода
Параметр матрицы формата : Выборочная
Идентификатор кодека : XVID
Идентификатор кодека/Подсказка : XviD
Продолжительность : 1 ч. 36 м.
Битрейт : 1712 Кбит/сек
Ширина : 704 пикселя
Высота : 528 пикселей
Соотношение сторон : 4:3
Частота кадров : 25,000 кадров/сек
Цветовое пространство : YUV
Субдискретизация насыщенности : 4:2:0
Битовая глубина : 8 бит
Тип развёртки : Прогрессивная
Метод сжатия : С потерями
Бит/(Пиксели*Кадры) : 0.184
Размер потока : 1,15 Гбайт (79%)
Библиотека кодирования : XviD 73

Аудио
Идентификатор : 1
Формат : AC-3
Формат/Информация : Audio Coding 3
Расширение режима : CM (complete main)
Параметр Endianness формата : Big
Идентификатор кодека : 2000
Продолжительность : 1 ч. 36 м.
Вид битрейта : Постоянный
Битрейт : 448 Кбит/сек
Каналы : 6 каналов
Расположение каналов : Front: L C R, Side: L R, LFE
Частота : 48,0 КГц
Битовая глубина : 16 бит
Метод сжатия : С потерями
Задержка видео : 1 мс.
Размер потока : 308 Мбайт (21%)
Выравнивание : Разделение по промежуткам
Продолжительность промежутка : 40 мс. (1,00 видеокадр)
Время предзагрузки промежутка : 500 мс



Последняя роль Анатолия Папанова. Он умер 5 августа 1987 года на 65-м году жизни в своей квартире от сердечного приступа, принимая холодный душ в жаркий день.
Де-юре амнистия 1953 года касалась тех, кто был осужден за незначительные преступления (на срок до пяти лет), а также беременных женщин, инвалидов и престарелых граждан. Однако на практике было освобождено большое число и других категорий осуждённых. Так, например, из лагерей системы Дальстрой предполагалось освободить осуждённых: за хищение личной собственности граждан − 14 617 человек, за хищение социалистической собственности − 10 402, за разбой − 1 047, за хулиганство — 2 673, за должностные и хозяйственные преступления − 1 745, за спекуляцию − 1 007, за имущественные преступления — 855, за незаконное хранение оружия — 545, воров-рецидивистов — 485, за воинские преступления — 2 326, за нарушение Закона о паспортизации — 252 и за другие — 3 951, то есть всего 39 905 человек.
Это второй фильм, где вместе сыграли Анатолий Папанов и Виктор Косых. Первой их совместной работой был фильм "Возмездие" 1967 года режиссера Александра Столпера по мотивам романа К. Симонова «Солдатами не рождаются».



   Похожие торренты   Торрент   Размер 
В этой теме нет новых непрочитанных сообщений. Холодное лето пятьдесят третьего (1987) DVDRip от New-Team

54 | 15

744.8 МБ

В этой теме нет новых непрочитанных сообщений. Холодное лето пятьдесят третьего (1987) DVDRip-AVC от New-Team

312 | 40

1.46 ГБ

В этой теме нет новых непрочитанных сообщений. Холодное лето пятьдесят третьего (1987) DVDRip от MediaClub | КПК

159 | 7

433.99 МБ

В этой теме нет новых непрочитанных сообщений. Холодное лето пятьдесят третьего (1987) DVDRip-AVC от ExKinoRay

260 | 19

2.02 ГБ

В этой теме нет новых непрочитанных сообщений. Холодное лето пятьдесят третьего (1987) DVDRip от Scarabey

73 | 14

743.43 МБ

В этой теме нет новых непрочитанных сообщений. Холодное лето пятьдесят третьего (1987) DVDRip от Scarabey

300 | 49

1.45 ГБ

В этой теме нет новых непрочитанных сообщений. Холодное лето пятьдесят третьего (1987) DVDRip-AVC от R.G.RealMT | Реставрация

194 | 19

1.47 ГБ




Вы не можете начинать темы
Вы не можете отвечать на сообщения
Вы не можете редактировать свои сообщения
Вы не можете удалять свои сообщения
Вы не можете добавлять вложения

Перейти:  
Для Мосгорсуда, Роскомнадзора и рекламодателей: mosgorsud-torrent[собачка]yandex.ru
 Вход
ppkBB3cker v.2 © 2008-2014 @ PPK
[ Time : 0.040s | 17 Queries | GZIP : Off ]

Торрент трекер RUTOR.IN, Не можете зайти на rutor.org? Какой новый адрес рутор? Какое зеркало рутор? Не работает rutor.org и зеркала? Тогда наш торрент специально для вас. Rutor.in неофициальное зеркало rutor. В случае если у Вас заблокирован rutor или вдруг Вы не можете на него зайти, то Вы без труда сможете скачать бесплатно и без рекламы последние новинки кино, игр, сериалов и прочего у нас, на Rutor.in. Не нужно использовать прокси, чтобы зайти на рутор, достаточно воспользоваться нашим ресурсом. Все новые фильмы, игры, сериалы, книги и музыка за 2013 и 2014 годы через торрент бесплатно. Скачивайте фильмы в хорошем качестве, игры для пк, xbox, playstation без регистрации. У нас вы найдете новые Зарубежные сериалы и Русские сериалы 2013, 2014, 2015 годов. Оставайтесь с нами, качайте любимые фильмы, игры, сериалы, книги и музыку.