img image001 image001 image001 image001 image001 image001 image001 image001 image001 image001 image001 image001 image001 image001 image001

Planets Sun Sun Sun
Статистика раздачи
Автор: Nickolas3434 | Размер: 1.46 ГБ | Добавлен: 12 мар 2014
Раздают: 102    Качают: 36
Скачать торрент
Скачать торрент
Описание торрента

СообщениеДобавлено: 12 мар 2014 

Страна: СССР
Производство: Мосфильм

Жанр: драма, мелодрама, комедия
Год выпуска: 1987
Продолжительность: 02:06:29

Перевод: не требуется
Оригинальная аудиодорожка: русский
Cубтитры: нет

Режиссер:Эльдар Рязанов

В ролях:
Леонид Филатов, Татьяна Догилева, Ирина Купченко, Александр Ширвиндт, Всеволод Санаев, Ольга Волкова, Сергей Арцибашев, Валентин Гафт, Елена Майорова, Вацлав Дворжецкий, Елена Фадеева...

Описание:
В прошлом студент консерватории и хороший флейтист, а в настоящем — муж дочери «большого человека», и сам начальник одного из подразделений Главного управления Леонид Семенович Филимонов, однажды почувствовал физическое недомогание: прихватило сердце. И это в неполные сорок лет от роду! Сей неприятный случай послужил поводом для знакомства бывшего флейтиста с молоденькой медсестрой из ведомственной поликлиники Лидой. И закрутился бурный роман…





Исходник: DVD9 R5
Тип релиза: DVDRip
Контейнер: AVI

Видео: 704x512 (1,375:1), 25 fps, XviD ~ 1511 kbps avg, 0.168 bit/pixel
Аудио: 48 kHz, MP3 2.0, 128 kbps

Раздача от:
Общее
Полное имя : Zabytaja.melodia.dlja.fleity.1987.DVDRip-1,46_[New-team]_by_AVP_Studio.avi
Формат : AVI
Формат/Информация : Audio Video Interleave
Размер файла : 1,46 Гбайт
Продолжительность : 2 ч. 6 м.
Общий поток : 1649 Кбит/сек
Программа кодирования : VirtualDubModRus 1.5.10.2 (build 2542/release)
Библиотека кодирования : VirtualDubMod build 2542/release

Видео
Идентификатор : 0
Формат : MPEG-4 Visual
Профиль формата : Advanced Simple@L5
Параметр BVOP формата : 1
Параметр QPel формата : Нет
Параметр GMC формата : Без точки перехода
Параметр матрицы формата : Выборочная
Идентификатор кодека : XVID
Идентификатор кодека/Подсказка : XviD
Продолжительность : 2 ч. 6 м.
Битрейт : 1511 Кбит/сек
Ширина : 704 пикселя
Высота : 512 пикселей
Соотношение сторон : 1,375
Частота кадров : 25,000 кадров/сек
Цветовое пространство : YUV
Субдискретизация насыщенности : 4:2:0
Битовая глубина : 8 бит
Тип развёртки : Прогрессивная
Метод сжатия : С потерями
Бит/(Пиксели*Кадры) : 0.168
Размер потока : 1,34 Гбайт (92%)
Библиотека кодирования : XviD 73

Аудио
Идентификатор : 1
Формат : MPEG Audio
Версия формата : Version 1
Профиль формата : Layer 3
Идентификатор кодека : 55
Идентификатор кодека/Подсказка : MP3
Продолжительность : 2 ч. 6 м.
Вид битрейта : Постоянный
Битрейт : 128 Кбит/сек
Каналы : 2 канала
Частота : 48,0 КГц
Метод сжатия : С потерями
Размер потока : 116 Мбайт (8%)
Выравнивание : Соединение по промежуткам
Продолжительность промежутка : 40 мс. (1,00 видеокадр)
Время предзагрузки промежутка : 504 мс.
Библиотека кодирования : LAME3.99r
Настройки программы : -m s -V 4 -q 2 -lowpass 17 -b 128



Рязанов давно планировал снять фильм по пьесе «Аморальная история», которую он написал в соавторстве с Брагинским ещё в 1976 году. Им были даже написаны слова к песне «Мы не пашем, не сеем, не строим», которую впоследствии исполнят в фильме Татьяна и Сергей Никитины. Первый вариант сценария не был принят на киностудии, так как его посчитали слишком острым, но когда в 1986 году был написан второй вариант, начавшаяся перестройка сделала свое дело и сценарий был принят. Но когда Эльдар Рязанов уже был готов начинать картину, Леонид Филатов, которого он изначально видел в главной роли, оказался занят в съёмках другого фильма.
Рязанов не стал ждать, пока освободится Филатов, и начал натурные съёмки в Крыму и Казахстане. В ходе съёмок Рязанов перенёс микроинсульт, в результате чего у него перестало слышать одно ухо. К моменту, когда Филатов освободился, Рязанов был серьёзно болен, и ему пришлось начинать снимать картину и при этом одновременно лечиться в стационаре.

В январе 1987 года состоялся известный Пленум ЦК КПСС, положивший начало эпохе гласности, и последние преграды для создания фильма исчезли. Теперь злободневную тему фильма можно было раскрывать во всей полноте, без необходимости сглаживания «острых углов». На экраны картина вышла в ноябре того же года.



   Похожие торренты   Торрент   Размер 
В этой теме нет новых непрочитанных сообщений. Забытая мелодия для флейты (1987) DVDRip-AVC от New-Team

7 | 24

2.19 ГБ

В этой теме нет новых непрочитанных сообщений. Забытая мелодия для флейты (1987) DVDRip от New-Team

59 | 28

2.19 ГБ

В этой теме нет новых непрочитанных сообщений. Забытая мелодия для флейты (1987) DVDRip-AVC

111 | 9

2.18 ГБ

В этой теме нет новых непрочитанных сообщений. Забытая мелодия для флейты (1987) DVDRip

297 | 29

1.97 ГБ

В этой теме нет новых непрочитанных сообщений. Забытая мелодия для флейты (1987) DVDRip-AVC от ExKinoRay

84 | 19

2.86 ГБ

В этой теме нет новых непрочитанных сообщений. Silvercast - Старая мелодия для флейты (2014) MP3

8 | 0

135.77 МБ

В этой теме нет новых непрочитанных сообщений. Забытая мелодия / Zapomniana melodia (1938) TVRip | A

6 | 6

789.6 МБ




Вы не можете начинать темы
Вы не можете отвечать на сообщения
Вы не можете редактировать свои сообщения
Вы не можете удалять свои сообщения
Вы не можете добавлять вложения

Перейти:  
Для Мосгорсуда, Роскомнадзора и рекламодателей: mosgorsud-torrent[собачка]yandex.ru
 Вход
ppkBB3cker v.2 © 2008-2014 @ PPK
[ Time : 0.046s | 17 Queries | GZIP : Off ]

Торрент трекер RUTOR.IN, Не можете зайти на rutor.org? Какой новый адрес рутор? Какое зеркало рутор? Не работает rutor.org и зеркала? Тогда наш торрент специально для вас. Rutor.in неофициальное зеркало rutor. В случае если у Вас заблокирован rutor или вдруг Вы не можете на него зайти, то Вы без труда сможете скачать бесплатно и без рекламы последние новинки кино, игр, сериалов и прочего у нас, на Rutor.in. Не нужно использовать прокси, чтобы зайти на рутор, достаточно воспользоваться нашим ресурсом. Все новые фильмы, игры, сериалы, книги и музыка за 2013 и 2014 годы через торрент бесплатно. Скачивайте фильмы в хорошем качестве, игры для пк, xbox, playstation без регистрации. У нас вы найдете новые Зарубежные сериалы и Русские сериалы 2013, 2014, 2015 годов. Оставайтесь с нами, качайте любимые фильмы, игры, сериалы, книги и музыку.
cron