img image001 image001 image001 image001 image001 image001 image001 image001 image001 image001 image001 image001 image001 image001 image001

Planets Sun Sun Sun
Статистика раздачи
Автор: Nickolas3434 | Размер: 745.02 МБ | Добавлен: 13 мар 2014
Раздают: 55    Качают: 12
Скачать торрент
Скачать торрент
Описание торрента

СообщениеДобавлено: 13 мар 2014 

Страна: СССР
Производство: Одесская киностудия

Жанр: драма, история
Год выпуска: 1987
Продолжительность: 01:33:17

Перевод: не требуется
Оригинальная аудиодорожка: русский
Cубтитры: нет

Режиссер: Ярослав Лупий

В ролях: Иван Гаврилюк, Виктор Евграфов, Сергей Быстрицкий, Михаил Горносталь, Нурмухан Жантурин, Болот Бейшеналиев, Эрнст Романов, Богдан Ступка, Юрий Гребенщиков, Татьяна Гайдук, Вера Кузнецова, М. Иоель, Стефан Мерцало, Константин Артеменко, Николай Волков, Станислав Рий, Святослав Максимчук, Леонардас Зельчюс, Эдгарас Савицкис, Р. Фёдоров, Юрий Дубровин, Виктор Мельник, Франческа Переплетчикова, Юрий Рудченко, Арунас Сторпирштис, Филипп Феоктистов, Виктор Демерташ, Зинаида Дехтярёва, Юрий Вотяков, Алексей Лупий, Олесь Лупий, Михаил Резниченко, Александр Титов, Анна Тогоноева, Олег Цёна, Пётр Шерекин...

Описание: Одно за другим склоняются русские княжества перед полчищами монголо — татар. На западных пограничных Галицко — Волынских землях осели тысячи людей, спасающихся от жестокости кочевников. Некоторое время князю Даниилу удается сохранять относительную независимость. Но вот Батый призывает Даниила в Орду.
Гордостью, смелостью суждений князь производит на хана большое впечатление, и тот отпускает его с миром, даруя право и дальше княжить в Галиче. Вернувшись на родину, Даниил начинает готовиться к войне с Ордой: заключает союз с венгерским королем, привлекает на свою сторону литовцев, поляков и немцев. Но Папа Римский запрещает западным государствам воевать с Батыем. А у Даниила времени на раздумья уже нет: кочевники вторгаются на русские земли. Дружина князя принимает бой…





Исходник: DVD5 R5
Тип релиза: DVDRip
Контейнер: AVI

Видео: 576x432 (4:3), 25 fps, XviD ~ 979 kbps avg, 0.157 bit/pixel
Аудио: 48 kHz, MP3 2.0, 128 kbps

Раздача от:
Общее
Полное имя : Daniil–knyaz.Galickiy.1987.DVDRip-745_[New-team]_by_AVP_Studio.avi
Формат : AVI
Формат/Информация : Audio Video Interleave
Размер файла : 745 Мбайт
Продолжительность : 1 ч. 33 м.
Общий поток : 1117 Кбит/сек
Программа кодирования : VirtualDubModRus 1.5.10.2 (build 2542/release)
Библиотека кодирования : VirtualDubMod build 2542/release

Видео
Идентификатор : 0
Формат : MPEG-4 Visual
Профиль формата : Advanced Simple@L5
Параметр BVOP формата : 1
Параметр QPel формата : Нет
Параметр GMC формата : Без точки перехода
Параметр матрицы формата : Выборочная
Идентификатор кодека : XVID
Идентификатор кодека/Подсказка : XviD
Продолжительность : 1 ч. 33 м.
Битрейт : 979 Кбит/сек
Ширина : 576 пикселей
Высота : 432 пикселя
Соотношение сторон : 4:3
Частота кадров : 25,000 кадров/сек
Цветовое пространство : YUV
Субдискретизация насыщенности : 4:2:0
Битовая глубина : 8 бит
Тип развёртки : Прогрессивная
Метод сжатия : С потерями
Бит/(Пиксели*Кадры) : 0.157
Размер потока : 653 Мбайт (88%)
Библиотека кодирования : XviD 73

Аудио
Идентификатор : 1
Формат : MPEG Audio
Версия формата : Version 1
Профиль формата : Layer 3
Идентификатор кодека : 55
Идентификатор кодека/Подсказка : MP3
Продолжительность : 1 ч. 33 м.
Вид битрейта : Постоянный
Битрейт : 128 Кбит/сек
Каналы : 2 канала
Частота : 48,0 КГц
Метод сжатия : С потерями
Размер потока : 85,4 Мбайт (11%)
Выравнивание : Соединение по промежуткам
Продолжительность промежутка : 40 мс. (1,00 видеокадр)
Время предзагрузки промежутка : 504 мс.
Библиотека кодирования : LAME3.99r
Настройки программы : -m s -V 4 -q 2 -lowpass 17 -b 128





   Похожие торренты   Торрент   Размер 
В этой теме нет новых непрочитанных сообщений. Даниил - князь Галицкий (1987) DVDRip-AVC от New-Team

32 | 31

1.46 ГБ

В этой теме нет новых непрочитанных сообщений. Даниил - князь Галицкий (1987) DVDRip от New-Team

82 | 20

1.46 ГБ

В этой теме нет новых непрочитанных сообщений. Даниил - князь Галицкий (1987) DVDRip от KinoBit

32 | 7

1.37 ГБ

В этой теме нет новых непрочитанных сообщений. Князь тьмы / Prince of Darkness (1987) DVDRip

8 | 16

700.18 МБ

В этой теме нет новых непрочитанных сообщений. Князь Тьмы / Prince of Darkness (1987) DVDRip от Generalfilm

9 | 3

1.37 ГБ

В этой теме нет новых непрочитанных сообщений. А. Бородин - Князь Игорь (1987) MP3

27 | 6

385.44 МБ

В этой теме нет новых непрочитанных сообщений. Князь тьмы / Prince of Darkness (1987) BDRip | P

40 | 10

1.46 ГБ




Вы не можете начинать темы
Вы не можете отвечать на сообщения
Вы не можете редактировать свои сообщения
Вы не можете удалять свои сообщения
Вы не можете добавлять вложения

Перейти:  
Для Мосгорсуда, Роскомнадзора и рекламодателей: mosgorsud-torrent[собачка]yandex.ru
 Вход
ppkBB3cker v.2 © 2008-2014 @ PPK
[ Time : 0.039s | 17 Queries | GZIP : Off ]

Торрент трекер RUTOR.IN, Не можете зайти на rutor.org? Какой новый адрес рутор? Какое зеркало рутор? Не работает rutor.org и зеркала? Тогда наш торрент специально для вас. Rutor.in неофициальное зеркало rutor. В случае если у Вас заблокирован rutor или вдруг Вы не можете на него зайти, то Вы без труда сможете скачать бесплатно и без рекламы последние новинки кино, игр, сериалов и прочего у нас, на Rutor.in. Не нужно использовать прокси, чтобы зайти на рутор, достаточно воспользоваться нашим ресурсом. Все новые фильмы, игры, сериалы, книги и музыка за 2013 и 2014 годы через торрент бесплатно. Скачивайте фильмы в хорошем качестве, игры для пк, xbox, playstation без регистрации. У нас вы найдете новые Зарубежные сериалы и Русские сериалы 2013, 2014, 2015 годов. Оставайтесь с нами, качайте любимые фильмы, игры, сериалы, книги и музыку.