img image001 image001 image001 image001 image001 image001 image001 image001 image001 image001 image001 image001 image001 image001 image001

Planets Sun Sun Sun
Статистика раздачи
Автор: Nickolas3434 | Размер: 1.56 ГБ | Добавлен: 13 мар 2014
Раздают: 41    Качают: 20
Скачать торрент
Скачать торрент
Описание торрента

СообщениеДобавлено: 13 мар 2014 

Белое солнце пустыни


Информация о фильме
Название: Белое солнце пустыни
Год выхода: 1969
Жанр: боевик, драма, мелодрама, комедия, приключения, военный
Режиссер: Владимир Мотыль
В ролях: Анатолий Кузнецов, Павел Луспекаев, Спартак Мишулин, Кахи Кавсадзе, Николай Годовиков, Раиса Куркина, Муса Дудаев, Николай Бадьев, Владимир Кадочников, Галина Лучай, Татьяна Федотова, Татьяна Ткач, Велта Деглав, Светлана Сливинская, Алла Лименес, Лидия Смирнова, Зинаида Рахматова, Татьяна Кричевская, Татьяна Денисова, Яков Ленц, Ираклий Нижарадзе, Игорь Милонов, Андрей Смирнов, Александр Соколов, Александр Массарский, Галина Дашевская, Галина Умпелева, Виталий Матвеев, Яков Базелян

О фильме:
Бесконечная пустыня, боец Сухов, прикуривающий с динамитной шашки, нескладный Петруха с вечно заклинивающей трехлинейкой, обаятельный Верещагин, с надоевшей черной икрой и знаменитыми песнями-балладами, ловкий Саид с незабвенным «Стреляли», злодей Абдулла со своей бандой, любознательная Гульчатай, играющая с черепахою…



Страна: СССР
Студия: Мосфильм, Ленфильм
Продолжительность: 01:20:09
Перевод: Не требуется

Файл
Кодек: h.264
Качество: WEB-DLRip-AVC
Видео: 2343 Кбит/с, 768x576, 25.000 кадр/с
Звук: AC3, 6 ch, 448 Кбит/с
Субтитры: Русские, английские

---------------------------------------------------------------------------------
x264 [info]: frame I:741 Avg QP:17.70 size: 60357
x264 [info]: frame P:31320 Avg QP:20.23 size: 23071
x264 [info]: frame B:88188 Avg QP:22.29 size: 7274
x264 [info]: consecutive B-frames: 1.6% 5.0% 7.8% 64.7% 10.4% 8.5% 1.2% 0.6% 0.2% 0.0% 0.0% 0.0% 0.1%
---------------------------------------------------------------------------------

Полное имя : Beloe.solnce.pustyni.1970.x264.WEB-DLRip-AVC.0ptimus.mkv
Формат : Matroska
Версия формата : Version 2
Размер файла : 1,56 Гбайт
Продолжительность : 1 ч. 20 м.
Общий поток : 2793 Кбит/сек
Название фильма : Белое солнце пустыни [1970] -= WEB-DLRip (AVC) by 0ptimus =-
Дата кодирования : UTC 2014-03-12 16:36:43
Программа кодирования : mkvmerge v6.6.0 ('The Edge Of The In Between') built on Dec 1 2013 17:55:00
Библиотека кодирования : libebml v1.3.0 + libmatroska v1.4.1

Видео
Идентификатор : 1
Формат : AVC
Формат/Информация : Advanced Video Codec
Профиль формата : High@L4.1
Параметр CABAC формата : Да
Параметр ReFrames формата : 9 кадров
Идентификатор кодека : V_MPEG4/ISO/AVC
Продолжительность : 1 ч. 20 м.
Битрейт : 2343 Кбит/сек
Ширина : 768 пикселей
Высота : 576 пикселей
Соотношение сторон : 4:3
Режим частоты кадров : Постоянный
Частота кадров : 25,000 кадров/сек
Цветовое пространство : YUV
Субдискретизация насыщенности : 4:2:0
Битовая глубина : 8 бит
Тип развёртки : Прогрессивная
Бит/(Пиксели*Кадры) : 0.212
Размер потока : 1,28 Гбайт (82%)
Заголовок : Rip by 0ptimus
Библиотека кодирования : x264 core 133 r2334 a3ac64b
Настройки программы : cabac=1 / ref=9 / deblock=1:-3:-3 / analyse=0x3:0x113 / me=umh / subme=10 / psy=1 / psy_rd=1.00:0.20 / mixed_ref=1 / me_range=32 / chroma_me=1 / trellis=2 / 8x8dct=1 / cqm=0 / deadzone=21,11 / fast_pskip=0 / chroma_qp_offset=-3 / threads=3 / lookahead_threads=1 / sliced_threads=0 / nr=0 / decimate=0 / interlaced=0 / bluray_compat=0 / constrained_intra=0 / bframes=12 / b_pyramid=2 / b_adapt=2 / b_bias=0 / direct=3 / weightb=1 / open_gop=0 / weightp=2 / keyint=250 / keyint_min=25 / scenecut=40 / intra_refresh=0 / rc_lookahead=40 / rc=2pass / mbtree=0 / bitrate=2343 / ratetol=1.0 / qcomp=0.60 / qpmin=0 / qpmax=69 / qpstep=4 / cplxblur=20.0 / qblur=0.5 / vbv_maxrate=50000 / vbv_bufsize=50000 / nal_hrd=none / ip_ratio=1.40 / pb_ratio=1.30 / aq=1:1.00
Язык : Russian
Default : Да
Forced : Да

Аудио
Идентификатор : 2
Формат : AC-3
Формат/Информация : Audio Coding 3
Расширение режима : CM (complete main)
Параметр Endianness формата : Big
Идентификатор кодека : A_AC3
Продолжительность : 1 ч. 20 м.
Вид битрейта : Постоянный
Битрейт : 448 Кбит/сек
Каналы : 6 каналов
Расположение каналов : Front: L C R, Side: L R, LFE
Частота : 48,0 КГц
Битовая глубина : 16 бит
Метод сжатия : С потерями
Размер потока : 257 Мбайт (16%)
Заголовок : AC3 5.1 @ 448 kbps
Язык : Russian
Default : Да
Forced : Да

Текст #1
Идентификатор : 3
Формат : UTF-8
Идентификатор кодека : S_TEXT/UTF8
Идентификатор кодека/Информация : UTF-8 Plain Text
Язык : Russian
Default : Нет
Forced : Нет

Текст #2
Идентификатор : 4
Формат : UTF-8
Идентификатор кодека : S_TEXT/UTF8
Идентификатор кодека/Информация : UTF-8 Plain Text
Заголовок : v1
Язык : English
Default : Нет
Forced : Нет

Текст #3
Идентификатор : 5
Формат : UTF-8
Идентификатор кодека : S_TEXT/UTF8
Идентификатор кодека/Информация : UTF-8 Plain Text
Заголовок : v2
Язык : English
Default : Нет
Forced : Нет

Меню
00:00:00.000 : en:01
00:10:05.000 : en:02
00:20:16.000 : en:03
00:30:03.000 : en:04
00:41:02.000 : en:05
00:49:59.000 : en:06
00:59:59.000 : en:07
01:09:52.000 : en:08
01:18:28.000 : en:09



Релиз от:



   Похожие торренты   Торрент   Размер 
В этой теме нет новых непрочитанных сообщений. Белое солнце пустыни (1969) DVD9

1 | 3

7.18 ГБ

В этой теме нет новых непрочитанных сообщений. Белое солнце пустыни (1969) WEB-DL 720p

46 | 52

2.51 ГБ

В этой теме нет новых непрочитанных сообщений. Белое солнце пустыни (1969) BDRip

63 | 18

1.48 ГБ

В этой теме нет новых непрочитанных сообщений. Белое солнце пустыни (1969) Blu-Ray 1080p

56 | 7

20.59 ГБ

В этой теме нет новых непрочитанных сообщений. Белое солнце пустыни (1969) WEB-DL 720p

118 | 144

2.51 ГБ

В этой теме нет новых непрочитанных сообщений. Белое солнце пустыни (1969) WEB-DL 720p

359 | 278

2.35 ГБ

В этой теме нет новых непрочитанных сообщений. Белое солнце пустыни (1969) BDRip-AVC

76 | 10

1.45 ГБ




Вы не можете начинать темы
Вы не можете отвечать на сообщения
Вы не можете редактировать свои сообщения
Вы не можете удалять свои сообщения
Вы не можете добавлять вложения

Перейти:  
Для Мосгорсуда, Роскомнадзора и рекламодателей: mosgorsud-torrent[собачка]yandex.ru
 Вход
ppkBB3cker v.2 © 2008-2014 @ PPK
[ Time : 0.541s | 15 Queries | GZIP : Off ]

Торрент трекер RUTOR.IN, Не можете зайти на rutor.org? Какой новый адрес рутор? Какое зеркало рутор? Не работает rutor.org и зеркала? Тогда наш торрент специально для вас. Rutor.in неофициальное зеркало rutor. В случае если у Вас заблокирован rutor или вдруг Вы не можете на него зайти, то Вы без труда сможете скачать бесплатно и без рекламы последние новинки кино, игр, сериалов и прочего у нас, на Rutor.in. Не нужно использовать прокси, чтобы зайти на рутор, достаточно воспользоваться нашим ресурсом. Все новые фильмы, игры, сериалы, книги и музыка за 2013 и 2014 годы через торрент бесплатно. Скачивайте фильмы в хорошем качестве, игры для пк, xbox, playstation без регистрации. У нас вы найдете новые Зарубежные сериалы и Русские сериалы 2013, 2014, 2015 годов. Оставайтесь с нами, качайте любимые фильмы, игры, сериалы, книги и музыку.