img image001 image001 image001 image001 image001 image001 image001 image001 image001 image001 image001 image001 image001 image001 image001

Planets Sun Sun Sun
Статистика раздачи
Автор: Nickolas3434 | Размер: 744.5 МБ | Добавлен: 15 мар 2014
Раздают: 120    Качают: 25
Скачать торрент
Скачать торрент
Описание торрента

СообщениеДобавлено: 15 мар 2014 

Страна: СССР
Производство: Мосфильм

Жанр: боевик, военный
Год выпуска: 1987
Продолжительность: 01:26:20

Перевод: не требуется
Оригинальная аудиодорожка: русский
Cубтитры: нет

Режиссер: Владимир Шамшурин

В ролях:
Борис Галкин, Георгий Юматов, Олег Стриженов, Александр Новиков, Артем Каминский, Екатерина Васильева, Сергей Десницкий, Виталий Зикора, Александр Январёв, Борис Никифоров, Виталий Яковлев, Бахром Акрамов, Сергей Волкош, Евгений Дегтяренко, Афанасий Кочетков, Олег Савосин, Виктор Уральский, Николай Симкин...

Описание:
Лето 1943 года. Советскому командованию становится известно, что на оккупированной территории Украины действует специальная разведшкола по подготовке разведчиков и диверсантов, одним из руководителей и преподавателей которой работает предатель Родины, опытный разведчик Кареев. Для нейтрализации немецкой разведбазы было решено изъять её архив…





Исходник: DVB
Тип релиза: SATRip
Контейнер: AVI

Видео: 704x304 (2,35:1), 25 fps, XviD ~ 1068 kbps avg, 0.200 bit/pixel
Аудио: 48 kHz, MP3 2.0, 128 kbps

Раздача от:
Общее
Полное имя : Akciya.1987.SATRip-745_[New-team]_by_AVP_Studio.avi
Формат : AVI
Формат/Информация : Audio Video Interleave
Размер файла : 744 Мбайт
Продолжительность : 1 ч. 26 м.
Общий поток : 1206 Кбит/сек
Программа кодирования : VirtualDubModRus 1.5.10.2 (build 2542/release)
Библиотека кодирования : VirtualDubMod build 2542/release

Видео
Идентификатор : 0
Формат : MPEG-4 Visual
Профиль формата : Advanced Simple@L5
Параметр BVOP формата : 1
Параметр QPel формата : Нет
Параметр GMC формата : Без точки перехода
Параметр матрицы формата : Выборочная
Идентификатор кодека : XVID
Идентификатор кодека/Подсказка : XviD
Продолжительность : 1 ч. 26 м.
Битрейт : 1068 Кбит/сек
Ширина : 704 пикселя
Высота : 304 пикселя
Соотношение сторон : 2,35:1
Частота кадров : 25,000 кадров/сек
Цветовое пространство : YUV
Субдискретизация насыщенности : 4:2:0
Битовая глубина : 8 бит
Тип развёртки : Прогрессивная
Метод сжатия : С потерями
Бит/(Пиксели*Кадры) : 0.200
Размер потока : 659 Мбайт (89%)
Библиотека кодирования : XviD 73

Аудио
Идентификатор : 1
Формат : MPEG Audio
Версия формата : Version 1
Профиль формата : Layer 3
Идентификатор кодека : 55
Идентификатор кодека/Подсказка : MP3
Продолжительность : 1 ч. 26 м.
Вид битрейта : Постоянный
Битрейт : 128 Кбит/сек
Каналы : 2 канала
Частота : 48,0 КГц
Метод сжатия : С потерями
Размер потока : 79,0 Мбайт (11%)
Выравнивание : Соединение по промежуткам
Продолжительность промежутка : 40 мс. (1,00 видеокадр)
Время предзагрузки промежутка : 504 мс.
Библиотека кодирования : LAME3.99r
Настройки программы : -m s -V 4 -q 2 -lowpass 17 -b 128





   Похожие торренты   Торрент   Размер 
В этой теме нет новых непрочитанных сообщений. Акция (1987) SATRip от New-Team

116 | 42

1.46 ГБ

В этой теме нет новых непрочитанных сообщений. Акция (1987) SATRip-AVC от New-Team

83 | 10

1.46 ГБ

В этой теме нет новых непрочитанных сообщений. Акция (1987) SATRip-AVC от ExKinoRay

115 | 21

1.52 ГБ

В этой теме нет новых непрочитанных сообщений. Акция (1987) DVD-5

12 | 8

3.86 ГБ

В этой теме нет новых непрочитанных сообщений. Акция (1987) DVDRip

27 | 4

1.37 ГБ

В этой теме нет новых непрочитанных сообщений. Жадность. Внимание: акция! [эфир от 18.10] (2011) SATRip от RiperAM

0 | 2

498.83 МБ

В этой теме нет новых непрочитанных сообщений. Визит к Минотавру [01-05 из 05] (1987) SATRip-AVC от New-Team

35 | 6

4.84 ГБ




Вы не можете начинать темы
Вы не можете отвечать на сообщения
Вы не можете редактировать свои сообщения
Вы не можете удалять свои сообщения
Вы не можете добавлять вложения

Перейти:  
Для Мосгорсуда, Роскомнадзора и рекламодателей: mosgorsud-torrent[собачка]yandex.ru
 Вход
ppkBB3cker v.2 © 2008-2014 @ PPK
[ Time : 0.549s | 16 Queries | GZIP : Off ]

Торрент трекер RUTOR.IN, Не можете зайти на rutor.org? Какой новый адрес рутор? Какое зеркало рутор? Не работает rutor.org и зеркала? Тогда наш торрент специально для вас. Rutor.in неофициальное зеркало rutor. В случае если у Вас заблокирован rutor или вдруг Вы не можете на него зайти, то Вы без труда сможете скачать бесплатно и без рекламы последние новинки кино, игр, сериалов и прочего у нас, на Rutor.in. Не нужно использовать прокси, чтобы зайти на рутор, достаточно воспользоваться нашим ресурсом. Все новые фильмы, игры, сериалы, книги и музыка за 2013 и 2014 годы через торрент бесплатно. Скачивайте фильмы в хорошем качестве, игры для пк, xbox, playstation без регистрации. У нас вы найдете новые Зарубежные сериалы и Русские сериалы 2013, 2014, 2015 годов. Оставайтесь с нами, качайте любимые фильмы, игры, сериалы, книги и музыку.
cron