img image001 image001 image001 image001 image001 image001 image001 image001 image001 image001 image001 image001 image001 image001 image001

Planets Sun Sun Sun
Статистика раздачи
Автор: Nickolas3434 | Размер: 1.46 ГБ | Добавлен: 18 мар 2014
Раздают: 365    Качают: 31
Скачать торрент
Скачать торрент
Описание торрента

СообщениеДобавлено: 18 мар 2014 



Информация о фильме
Название: Приезжая
Год выхода: 1977
Жанр: мелодрама
Режиссер: Валерий Лонский
В ролях: Жанна Прохоренко, Александр Михайлов, Владимир Земляникин, Мария Виноградова, Лев Борисов, Лена Иконицкая, Сергей Поначевный, Елена Кузьмина

О фильме:
История любви деревенского шофера Федора к учительнице Марии, приехавшей с дочерью из города. Постепенно между ними возникает настоящая любовь. Федор и Мария живут вполне счастливо, когда однажды в деревне появляется бывший муж учительницы...



Страна: СССР
Студия: Мосфильм
Продолжительность: 01:34:41
Перевод: Не требуется

Файл
Кодек: XviD
Качество: SATRip
Видео: 1999 Кбит/с, 704x304, 25.000 кадр/с
Звук: АС3, 2 ch, 192 Кбит/с

Полное имя : Priezhaya.1977.XviD.SATRip.avi
Формат : AVI
Формат/Информация : Audio Video Interleave
Размер файла : 1,46 Гбайт
Продолжительность : 1 ч. 34 м.
Общий поток : 2200 Кбит/сек
Программа кодирования : VirtualDubMod 1.5.10.3 | www.virtualdub-fr.org || (build 2550/release)
Библиотека кодирования : VirtualDubMod build 2550/release
Видео
Идентификатор : 0
Формат : MPEG-4 Visual
Профиль формата : Advanced Simple@L5
Параметр BVOP формата : 1
Параметр QPel формата : Нет
Параметр GMC формата : Без точки перехода
Параметр матрицы формата : Выборочная
Идентификатор кодека : XVID
Идентификатор кодека/Подсказка : XviD
Продолжительность : 1 ч. 34 м.
Битрейт : 1999 Кбит/сек
Ширина : 704 пикселя
Высота : 304 пикселя
Соотношение сторон : 2,35:1
Частота кадров : 25,000 кадров/сек
Цветовое пространство : YUV
Субдискретизация насыщенности : 4:2:0
Битовая глубина : 8 бит
Тип развёртки : Прогрессивная
Метод сжатия : С потерями
Бит/(Пиксели*Кадры) : 0.374
Размер потока : 1,32 Гбайт (91%)
Библиотека кодирования : XviD 64
Аудио
Идентификатор : 1
Формат : AC-3
Формат/Информация : Audio Coding 3
Расширение режима : CM (complete main)
Параметр Endianness формата : Big
Идентификатор кодека : 2000
Продолжительность : 1 ч. 34 м.
Вид битрейта : Постоянный
Битрейт : 192 Кбит/сек
Каналы : 2 канала
Расположение каналов : Front: L R
Частота : 48,0 КГц
Битовая глубина : 16 бит
Метод сжатия : С потерями
Размер потока : 130 Мбайт (9%)
Выравнивание : Разделение по промежуткам
Продолжительность промежутка : 40 мс. (1,00 видеокадр)
Время предзагрузки промежутка : 500 мс.





   Похожие торренты   Торрент   Размер 
В этой теме нет новых непрочитанных сообщений. Приезжая (1977) SATRip

10 | 10

1.28 ГБ

В этой теме нет новых непрочитанных сообщений. Покорители гор (1977) SATRip

131 | 3

250.6 МБ

В этой теме нет новых непрочитанных сообщений. Доброта (1977) SATRip

408 | 12

1.07 ГБ

В этой теме нет новых непрочитанных сообщений. Диалог [01-03 из 03] (1977) SATRip-AVC от ExKinoRay

15 | 2

3.21 ГБ

В этой теме нет новых непрочитанных сообщений. Берега [01-07 из 07] (1977) SATRip от New-Team

15 | 11

6.63 ГБ

В этой теме нет новых непрочитанных сообщений. Перед экзаменом (1977) SATRip

3 | 0

698.79 МБ

В этой теме нет новых непрочитанных сообщений. Венок сонетов (1977) SATRip

35 | 4

1.37 ГБ




Вы не можете начинать темы
Вы не можете отвечать на сообщения
Вы не можете редактировать свои сообщения
Вы не можете удалять свои сообщения
Вы не можете добавлять вложения

Перейти:  
Для Мосгорсуда, Роскомнадзора и рекламодателей: mosgorsud-torrent[собачка]yandex.ru
 Вход
ppkBB3cker v.2 © 2008-2014 @ PPK
[ Time : 0.036s | 19 Queries | GZIP : Off ]

Торрент трекер RUTOR.IN, Не можете зайти на rutor.org? Какой новый адрес рутор? Какое зеркало рутор? Не работает rutor.org и зеркала? Тогда наш торрент специально для вас. Rutor.in неофициальное зеркало rutor. В случае если у Вас заблокирован rutor или вдруг Вы не можете на него зайти, то Вы без труда сможете скачать бесплатно и без рекламы последние новинки кино, игр, сериалов и прочего у нас, на Rutor.in. Не нужно использовать прокси, чтобы зайти на рутор, достаточно воспользоваться нашим ресурсом. Все новые фильмы, игры, сериалы, книги и музыка за 2013 и 2014 годы через торрент бесплатно. Скачивайте фильмы в хорошем качестве, игры для пк, xbox, playstation без регистрации. У нас вы найдете новые Зарубежные сериалы и Русские сериалы 2013, 2014, 2015 годов. Оставайтесь с нами, качайте любимые фильмы, игры, сериалы, книги и музыку.
cron