img image001 image001 image001 image001 image001 image001 image001 image001 image001 image001 image001 image001 image001 image001 image001

Planets Sun Sun Sun
Статистика раздачи
Автор: Nickolas3434 | Размер: 1.46 ГБ | Добавлен: 18 мар 2014
Раздают: 22    Качают: 13
Скачать торрент
Скачать торрент
Описание торрента

СообщениеДобавлено: 18 мар 2014 

Страна: СССР
Производство: Киевская киностудия

Жанр: драма
Год выпуска: 1955
Продолжительность: 01:33:32

Перевод: не требуется
Оригинальная аудиодорожка: русский
Cубтитры: нет

Режиссер: Александр Алов, Владимир Наумов

В ролях:
Александр Суснин, Леня Цыпляков, Михаил Крамар, Олесь Рудковский, Тамара Логинова, Света Величко, Николай Рыбников, Олег Кирст, Сергей Гурзо, Николай Крючков, Григорий Гай, Борис Бабочкин, Юрий Лавров, Елена Тяпкина, Иван Кузнецов, Александра Панова...

Описание:
О трех юных участниках революционных боев на Украине, пришедших на завод в первые годы восстановления народного хозяйства…





Исходник: DVD5 R5
Тип релиза: DVDRip
Контейнер: AVI

Видео: 688x528 (4:3), 25 fps, XviD ~ 2027 kbps avg, 0.223 bit/pixel
Аудио: 48 kHz, Dolby Digital AC3 2.0, 192 kbps

Раздача от:
Общее
Полное имя : Trevozhnaya.molodost.1955.DVDRip_[New-team]_by_AVP_Studio.avi
Формат : AVI
Формат/Информация : Audio Video Interleave
Размер файла : 1,46 Гбайт
Продолжительность : 1 ч. 33 м.
Общий поток : 2229 Кбит/сек
Программа кодирования : VirtualDubModRus 1.5.10.2 (build 2542/release)
Библиотека кодирования : VirtualDubMod build 2542/release

Видео
Идентификатор : 0
Формат : MPEG-4 Visual
Профиль формата : Advanced Simple@L5
Параметр BVOP формата : 1
Параметр QPel формата : Нет
Параметр GMC формата : Без точки перехода
Параметр матрицы формата : Выборочная
Идентификатор кодека : XVID
Идентификатор кодека/Подсказка : XviD
Продолжительность : 1 ч. 33 м.
Битрейт : 2027 Кбит/сек
Ширина : 688 пикселей
Высота : 528 пикселей
Соотношение сторон : 4:3
Частота кадров : 25,000 кадров/сек
Цветовое пространство : YUV
Субдискретизация насыщенности : 4:2:0
Битовая глубина : 8 бит
Тип развёртки : Прогрессивная
Метод сжатия : С потерями
Бит/(Пиксели*Кадры) : 0.223
Размер потока : 1,32 Гбайт (91%)
Библиотека кодирования : XviD 73

Аудио
Идентификатор : 1
Формат : AC-3
Формат/Информация : Audio Coding 3
Расширение режима : CM (complete main)
Параметр Endianness формата : Big
Идентификатор кодека : 2000
Продолжительность : 1 ч. 33 м.
Вид битрейта : Постоянный
Битрейт : 192 Кбит/сек
Каналы : 2 канала
Расположение каналов : Front: L R
Частота : 48,0 КГц
Битовая глубина : 16 бит
Метод сжатия : С потерями
Размер потока : 128 Мбайт (9%)
Выравнивание : Разделение по промежуткам
Продолжительность промежутка : 40 мс. (1,00 видеокадр)
Время предзагрузки промежутка : 500 мс





   Похожие торренты   Торрент   Размер 
В этой теме нет новых непрочитанных сообщений. Тревожная молодость (1955) DVDRip-AVC от New-Team

9 | 10

1.46 ГБ

В этой теме нет новых непрочитанных сообщений. Тревожная молодость (1955) DVDRip от New-Team

16 | 7

744.57 МБ

В этой теме нет новых непрочитанных сообщений. Тревожная молодость (1955) DVDRip

9 | 4

1.37 ГБ

В этой теме нет новых непрочитанных сообщений. Попрыгунья (1955) DVDRip-AVC от New-Team

14 | 1

1.09 ГБ

В этой теме нет новых непрочитанных сообщений. Два капитана (1955) DVDRip от New-Team

11 | 2

745.05 МБ

В этой теме нет новых непрочитанных сообщений. Два капитана (1955) DVDRip от New-Team

10 | 1

1.46 ГБ

В этой теме нет новых непрочитанных сообщений. Мать (1955) DVDRip от New-Team

5 | 2

1.09 ГБ




Вы не можете начинать темы
Вы не можете отвечать на сообщения
Вы не можете редактировать свои сообщения
Вы не можете удалять свои сообщения
Вы не можете добавлять вложения

Перейти:  
Для Мосгорсуда, Роскомнадзора и рекламодателей: mosgorsud-torrent[собачка]yandex.ru
 Вход
ppkBB3cker v.2 © 2008-2014 @ PPK
[ Time : 0.031s | 16 Queries | GZIP : Off ]

cron