img image001 image001 image001 image001 image001 image001 image001 image001 image001 image001 image001 image001 image001 image001 image001

Planets Sun Sun Sun
Статистика раздачи
Автор: Nickolas3434 | Размер: 1.46 ГБ | Добавлен: 18 мар 2014
Раздают: 9    Качают: 34
Скачать торрент
Скачать торрент
Описание торрента

СообщениеДобавлено: 18 мар 2014 

Страна: СССР
Производство: Мосфильм, ТО «Юность»

Жанр: боевик, история
Год выпуска: 1963
Продолжительность: 01:36:43

Перевод: не требуется
Оригинальная аудиодорожка: русский
Cубтитры: нет

Режиссер: Борис Волчек

В ролях:
Александр Демьяненко, Валентина Малявина, Евгений Евстигнеев, Владимир Кенигсон, Олег Ефремов, Владимир Заманский, Светлана Данильченко, Дмитрий Масанов, Леонид Пархоменко, В.Мухарьямов, Владлен Паулус, Ирина Скобцева, Иван Жеваго, Леонид Князев...

Описание:
По мотивам одноименной повести Александра Лукина и Дмитрия Поляновского.
Лента посвящена нелегкой судьбе и героической работе чекистов в годы гражданской войны.
В Херсонесе только-только установлена советская власть, банды и боевые группировки еще вовсю орудуют в городе. Очень уж многим хочется поменять власть и взять управление портовым городом в свои руки. Сотрудники ЧК день и ночь ведут борьбу с контрреволюционерами. Среди прочих выделяется Алексей Михалев - молодой чекист-дзержинец…





Исходник: DVD5 R5
Тип релиза: DVDRip
Контейнер: AVI

Видео: 688x512 (4:3), 25 fps, XviD ~ 1952 kbps avg, 0.222 bit/pixel
Аудио: 48 kHz, Dolby Digital AC3 2.0, 192 kbps

Раздача от:
Общее
Полное имя : Sotrudnik.ChK.1963.DVDRip_[New-team]_by_AVP_Studio.avi
Формат : AVI
Формат/Информация : Audio Video Interleave
Размер файла : 1,46 Гбайт
Продолжительность : 1 ч. 36 м.
Общий поток : 2154 Кбит/сек
Программа кодирования : VirtualDubModRus 1.5.10.2 (build 2542/release)
Библиотека кодирования : VirtualDubMod build 2542/release

Видео
Идентификатор : 0
Формат : MPEG-4 Visual
Профиль формата : Advanced Simple@L5
Параметр BVOP формата : 1
Параметр QPel формата : Нет
Параметр GMC формата : Без точки перехода
Параметр матрицы формата : Выборочная
Идентификатор кодека : XVID
Идентификатор кодека/Подсказка : XviD
Продолжительность : 1 ч. 36 м.
Битрейт : 1952 Кбит/сек
Ширина : 688 пикселей
Высота : 512 пикселей
Соотношение сторон : 4:3
Частота кадров : 25,000 кадров/сек
Цветовое пространство : YUV
Субдискретизация насыщенности : 4:2:0
Битовая глубина : 8 бит
Тип развёртки : Прогрессивная
Метод сжатия : С потерями
Бит/(Пиксели*Кадры) : 0.222
Размер потока : 1,32 Гбайт (91%)
Библиотека кодирования : XviD 73

Аудио
Идентификатор : 1
Формат : AC-3
Формат/Информация : Audio Coding 3
Расширение режима : CM (complete main)
Параметр Endianness формата : Big
Идентификатор кодека : 2000
Продолжительность : 1 ч. 36 м.
Вид битрейта : Постоянный
Битрейт : 192 Кбит/сек
Каналы : 2 канала
Расположение каналов : Front: L R
Частота : 48,0 КГц
Битовая глубина : 16 бит
Метод сжатия : С потерями
Размер потока : 133 Мбайт (9%)
Выравнивание : Разделение по промежуткам
Продолжительность промежутка : 40 мс. (1,00 видеокадр)
Время предзагрузки промежутка : 500 мс





   Похожие торренты   Торрент   Размер 
В этой теме нет новых непрочитанных сообщений. Сотрудник ЧК (1963) DVDRip от New-Team

5 | 24

743.81 МБ

В этой теме нет новых непрочитанных сообщений. Сотрудник ЧК (1963) DVDRip-AVC от New-Team

88 | 13

1.46 ГБ

В этой теме нет новых непрочитанных сообщений. Сотрудник ЧК (1963) DVDRip

12 | 5

744.57 МБ

В этой теме нет новых непрочитанных сообщений. Сотрудник ЧК (1963) DVDRip

8 | 5

1.37 ГБ

В этой теме нет новых непрочитанных сообщений. Сотрудник ЧК (1963) DVD5

1 | 4

4.32 ГБ

В этой теме нет новых непрочитанных сообщений. Сотрудник / Collaborator (2011) DVDRip | P2

9 | 2

743.91 МБ

В этой теме нет новых непрочитанных сообщений. Трое суток после бессмертия (1963) DVDRip от New-Team

20 | 4

1.09 ГБ




Вы не можете начинать темы
Вы не можете отвечать на сообщения
Вы не можете редактировать свои сообщения
Вы не можете удалять свои сообщения
Вы не можете добавлять вложения

Перейти:  
Для Мосгорсуда, Роскомнадзора и рекламодателей: mosgorsud-torrent[собачка]yandex.ru
 Вход
ppkBB3cker v.2 © 2008-2014 @ PPK
[ Time : 0.089s | 17 Queries | GZIP : Off ]

Торрент трекер RUTOR.IN, Не можете зайти на rutor.org? Какой новый адрес рутор? Какое зеркало рутор? Не работает rutor.org и зеркала? Тогда наш торрент специально для вас. Rutor.in неофициальное зеркало rutor. В случае если у Вас заблокирован rutor или вдруг Вы не можете на него зайти, то Вы без труда сможете скачать бесплатно и без рекламы последние новинки кино, игр, сериалов и прочего у нас, на Rutor.in. Не нужно использовать прокси, чтобы зайти на рутор, достаточно воспользоваться нашим ресурсом. Все новые фильмы, игры, сериалы, книги и музыка за 2013 и 2014 годы через торрент бесплатно. Скачивайте фильмы в хорошем качестве, игры для пк, xbox, playstation без регистрации. У нас вы найдете новые Зарубежные сериалы и Русские сериалы 2013, 2014, 2015 годов. Оставайтесь с нами, качайте любимые фильмы, игры, сериалы, книги и музыку.