img image001 image001 image001 image001 image001 image001 image001 image001 image001 image001 image001 image001 image001 image001 image001

Planets Sun Sun Sun
Статистика раздачи
Автор: Nickolas3434 | Размер: 744.15 МБ | Добавлен: 19 мар 2014
Раздают: 330    Качают: 36
Скачать торрент
Скачать торрент
Описание торрента

СообщениеДобавлено: 19 мар 2014 

Страна: СССР
Производство: Гостелерадиофонд

Жанр: комедия
Год выпуска: 1988
Продолжительность: 00:55:26

Перевод: не требуется
Оригинальная аудиодорожка: русский
Cубтитры: нет

Режиссер: Зинаида Алиева

В ролях:
Леонид Филатов

Описание:
Моноспектакль. «Сказка про Федота-стрельца, удалого молодца» — самое известное поэтическое произведение Леонида Филатова. Сюжет произведения традиционен для многих русских народных сказок: царь, желая извести стрельца и жениться на его супруге Марусе, придумывает для героя испытания. Самое сложное — принести то, чего не может быть…





Исходник: DVD5 R5
Тип релиза: DVDRip
Контейнер: AVI

Видео: 688x528 (4:3), 25 fps, XviD ~ 1675 kbps avg, 0.184 bit/pixel
Аудио: 48 kHz, Dolby Digital AC3 2.0, 192 kbps

Раздача от:
Общее
Полное имя : Pro.Fedota-strelca.udalogo.molodca.1988.DVDRip_[New-team]_by_AVP_Studio.avi
Формат : AVI
Формат/Информация : Audio Video Interleave
Размер файла : 744 Мбайт
Продолжительность : 55 м.
Общий поток : 1877 Кбит/сек
Программа кодирования : VirtualDubModRus 1.5.10.2 (build 2542/release)
Библиотека кодирования : VirtualDubMod build 2542/release

Видео
Идентификатор : 0
Формат : MPEG-4 Visual
Профиль формата : Advanced Simple@L5
Параметр BVOP формата : 1
Параметр QPel формата : Нет
Параметр GMC формата : Без точки перехода
Параметр матрицы формата : Выборочная
Идентификатор кодека : XVID
Идентификатор кодека/Подсказка : XviD
Продолжительность : 55 м.
Битрейт : 1675 Кбит/сек
Ширина : 688 пикселей
Высота : 528 пикселей
Соотношение сторон : 4:3
Частота кадров : 25,000 кадров/сек
Цветовое пространство : YUV
Субдискретизация насыщенности : 4:2:0
Битовая глубина : 8 бит
Тип развёртки : Прогрессивная
Метод сжатия : С потерями
Бит/(Пиксели*Кадры) : 0.184
Размер потока : 664 Мбайт (89%)
Библиотека кодирования : XviD 73

Аудио
Идентификатор : 1
Формат : AC-3
Формат/Информация : Audio Coding 3
Расширение режима : CM (complete main)
Параметр Endianness формата : Big
Идентификатор кодека : 2000
Продолжительность : 55 м.
Вид битрейта : Постоянный
Битрейт : 192 Кбит/сек
Каналы : 2 канала
Расположение каналов : Front: L R
Частота : 48,0 КГц
Битовая глубина : 16 бит
Метод сжатия : С потерями
Размер потока : 76,1 Мбайт (10%)
Выравнивание : Разделение по промежуткам
Продолжительность промежутка : 40 мс. (1,00 видеокадр)
Время предзагрузки промежутка : 500 мс





   Похожие торренты   Торрент   Размер 
В этой теме нет новых непрочитанных сообщений. Про Федота-стрельца, удалого молодца (1988) DVDRip-AVC от New-Team

179 | 30

744.14 МБ

В этой теме нет новых непрочитанных сообщений. Про Федота-Стрельца, удалого молодца (1988) DVD5

74 | 4

3.38 ГБ

В этой теме нет новых непрочитанных сообщений. Леонид Филатов - Сказ про Федота-стрельца, удалого молодца (1988) MP3

907 | 21

50.38 МБ

В этой теме нет новых непрочитанных сообщений. Про Федота-стрельца, удалого молодца (2008) DVDRip

719 | 19

1.46 ГБ

В этой теме нет новых непрочитанных сообщений. Про Федота-стрельца, удалого молодца (2008) DVDRip

95 | 10

744.72 МБ

В этой теме нет новых непрочитанных сообщений. Про Федота-стрельца, удалого молодца (2008) DVDRip

59 | 2

698.81 МБ

В этой теме нет новых непрочитанных сообщений. Про Федота-стрельца, удалого молодца (2008) DVDRip от MediaClub | КПК

74 | 7

329.28 МБ




Вы не можете начинать темы
Вы не можете отвечать на сообщения
Вы не можете редактировать свои сообщения
Вы не можете удалять свои сообщения
Вы не можете добавлять вложения

Перейти:  
Для Мосгорсуда, Роскомнадзора и рекламодателей: mosgorsud-torrent[собачка]yandex.ru
 Вход
ppkBB3cker v.2 © 2008-2014 @ PPK
[ Time : 0.079s | 14 Queries | GZIP : Off ]
CGP output time : 0.023s | 5 Queries | GZIP : Off

Торрент трекер RUTOR.IN, Не можете зайти на rutor.org? Какой новый адрес рутор? Какое зеркало рутор? Не работает rutor.org и зеркала? Тогда наш торрент специально для вас. Rutor.in неофициальное зеркало rutor. В случае если у Вас заблокирован rutor или вдруг Вы не можете на него зайти, то Вы без труда сможете скачать бесплатно и без рекламы последние новинки кино, игр, сериалов и прочего у нас, на Rutor.in. Не нужно использовать прокси, чтобы зайти на рутор, достаточно воспользоваться нашим ресурсом. Все новые фильмы, игры, сериалы, книги и музыка за 2013 и 2014 годы через торрент бесплатно. Скачивайте фильмы в хорошем качестве, игры для пк, xbox, playstation без регистрации. У нас вы найдете новые Зарубежные сериалы и Русские сериалы 2013, 2014, 2015 годов. Оставайтесь с нами, качайте любимые фильмы, игры, сериалы, книги и музыку.