img image001 image001 image001 image001 image001 image001 image001 image001 image001 image001 image001 image001 image001 image001 image001

Planets Sun Sun Sun
Статистика раздачи
Автор: Nickolas3434 | Размер: 704.52 МБ | Добавлен: 21 мар 2014
Раздают: 487    Качают: 41
Скачать торрент
Скачать торрент
Описание торрента

СообщениеДобавлено: 21 мар 2014 

Название: Нереальная любовь
Жанр: Комедия, Мелодрама, приключения
Выпущено: Россия, Dreamteam Media
Год выпуска: 2014
Продолжительность: 01:19:46

Режиссёр: Арман Геворгян

В ролях: Игорь Верник, Егор Пазенко, Гоша Куценко, Егор Бероев, Волга Король, Герман Шпригов, Янина Студилина, Дмитрий Ендальцев, Олеся Пуховая, Юрий Базик, Анатолий Голуб, Сергей Журавель, Анна Щербинина, Анатолий Терпицкий, Оскар Кучера, Марина Александрова, Равшана Куркова, Фрида Геворгян, Сергей Новицкий, Катя Король

Описание: Мира и Ольга когда-то учились в одном классе, и спустя 10 лет случайно встречаются вновь. Светская львица решает наладить личную жизнь одноклассницы и помогает ей превратиться из наивной серой мышки в роковую красотку. Девушки отправляются в Сочи, где проходит бизнес-форум, в поисках единственного и неповторимого. Московские красотки без труда покоряют мужские сердца, попав в водоворот романтических приключений.



Качество видео: DVDRip (Исходник: DVD-5)
Формат видео: AVI

Видео: XviD, 688x288 (2.40:1), 25 кадр/с, 1097 Кбит/с
Аудио: Русский, MP3, 48000 Гц, 128 Кбит/с, 2 канала (Стерео)



Автор рипа - ivandubskoj

Общее
Полное имя : Nereal'naya.lyubov'.2014.DVDRip.700MB.avi
Формат : AVI
Формат/Информация : Audio Video Interleave
Размер файла : 705 Мбайт
Продолжительность : 1 ч. 19 м.
Общий поток : 1235 Кбит/сек
Название фильма : Нереальная любовь (2014) DVDRip
Жанр : Комедия, мелодрама
Дата записи : 19.03.2014
Программа кодирования : VirtualDubMod 1.5.10.3 (build 2550/release)
Библиотека кодирования : VirtualDubMod build 2550/release
Правообладатель : rip by ivandubskoj

Видео
Идентификатор : 0
Формат : MPEG-4 Visual
Профиль формата : Advanced Simple@L5
Параметр BVOP формата : 1
Параметр QPel формата : Нет
Параметр GMC формата : Без точки перехода
Параметр матрицы формата : Default (MPEG)
Идентификатор кодека : XVID
Идентификатор кодека/Подсказка : XviD
Продолжительность : 1 ч. 19 м.
Битрейт : 1097 Кбит/сек
Ширина : 688 пикселей
Высота : 288 пикселей
Соотношение сторон : 2,40:1
Частота кадров : 25,000 кадров/сек
Цветовое пространство : YUV
Субдискретизация насыщенности : 4:2:0
Битовая глубина : 8 бит
Тип развёртки : Прогрессивная
Метод сжатия : С потерями
Бит/(Пиксели*Кадры) : 0.221
Размер потока : 626 Мбайт (89%)
Библиотека кодирования : XviD 73

Аудио
Идентификатор : 1
Формат : MPEG Audio
Версия формата : Version 1
Профиль формата : Layer 3
Идентификатор кодека : 55
Идентификатор кодека/Подсказка : MP3
Продолжительность : 1 ч. 19 м.
Вид битрейта : Постоянный
Битрейт : 128 Кбит/сек
Каналы : 2 канала
Частота : 48,0 КГц
Метод сжатия : С потерями
Размер потока : 73,0 Мбайт (10%)
Выравнивание : Соединение по промежуткам
Продолжительность промежутка : 40 мс. (1,00 видеокадр)
Время предзагрузки промежутка : 504 мс.
Заголовок : Russian
Библиотека кодирования : LAME3.99r
Настройки программы : -m s -V 4 -q 2 -lowpass 17 -b 128





   Похожие торренты   Торрент   Размер 
В этой теме нет новых непрочитанных сообщений. Нереальная любовь (2014) DVDRip от ivandubskoj

177 | 52

691.71 МБ

В этой теме нет новых непрочитанных сообщений. Нереальная любовь (2014) DVDRip

1139 | 193

703.05 МБ

В этой теме нет новых непрочитанных сообщений. Нереальная любовь (2014) DVDRip-AVC от RG WazZzuP | Лицензия

217 | 13

744.29 МБ

В этой теме нет новых непрочитанных сообщений. Нереальная любовь (2014) DVDRip-AVC от New-Team | лицензия

1730 | 311

1.45 ГБ

В этой теме нет новых непрочитанных сообщений. Нереальная любовь (2014) DVDRip от New-Team | лицензия

4884 | 735

1.46 ГБ

В этой теме нет новых непрочитанных сообщений. Нереальная любовь (2014) WEBRip

452 | 458

1.37 ГБ

В этой теме нет новых непрочитанных сообщений. Нереальная любовь (2014) WEB-DL 1080p | Лицензия

1058 | 146

2.48 ГБ




Вы не можете начинать темы
Вы не можете отвечать на сообщения
Вы не можете редактировать свои сообщения
Вы не можете удалять свои сообщения
Вы не можете добавлять вложения

Перейти:  
Для Мосгорсуда, Роскомнадзора и рекламодателей: mosgorsud-torrent[собачка]yandex.ru
 Вход
ppkBB3cker v.2 © 2008-2014 @ PPK
[ Time : 0.057s | 16 Queries | GZIP : Off ]

Торрент трекер RUTOR.IN, Не можете зайти на rutor.org? Какой новый адрес рутор? Какое зеркало рутор? Не работает rutor.org и зеркала? Тогда наш торрент специально для вас. Rutor.in неофициальное зеркало rutor. В случае если у Вас заблокирован rutor или вдруг Вы не можете на него зайти, то Вы без труда сможете скачать бесплатно и без рекламы последние новинки кино, игр, сериалов и прочего у нас, на Rutor.in. Не нужно использовать прокси, чтобы зайти на рутор, достаточно воспользоваться нашим ресурсом. Все новые фильмы, игры, сериалы, книги и музыка за 2013 и 2014 годы через торрент бесплатно. Скачивайте фильмы в хорошем качестве, игры для пк, xbox, playstation без регистрации. У нас вы найдете новые Зарубежные сериалы и Русские сериалы 2013, 2014, 2015 годов. Оставайтесь с нами, качайте любимые фильмы, игры, сериалы, книги и музыку.