img image001 image001 image001 image001 image001 image001 image001 image001 image001 image001 image001 image001 image001 image001 image001

Planets Sun Sun Sun
Статистика раздачи
Автор: Nickolas3434 | Размер: 1.46 ГБ | Добавлен: 21 мар 2014
Раздают: 44    Качают: 14
Скачать торрент
Скачать торрент
Описание торрента

СообщениеДобавлено: 21 мар 2014 

Страна: СССР
Производство: Мосфильм

Жанр: драма
Год выпуска: 1964
Продолжительность: 02:35:28 (01:29:01 + 01:06:27)

Перевод: не требуется
Оригинальная аудиодорожка: русский
Cубтитры: нет

Режиссер: Алексей Салтыков

В ролях:
Михаил Ульянов, Иван Лапиков, Нонна Мордюкова, Лариса Блинова, Вячеслав Невинный, Валентина Владимирова, Николай Парфенов, Кира Головко, Антонина Богданова, Владимир Этуш, Сергей Курилов, Аркадий Трусов, Михаил Кокшенов, Сергей Голованов, Виталий Соломин...

Описание:
Фронтовик Егор Трубников возвращается в родную деревню восстанавливать разоренное, нищее хозяйство. Тяжко ему приходится — почти как на войне.
Став председателем, он взваливает на себя бремя ответственности не только за колхозные дела, но и за судьбы таких близких ему людей…





Исходник: DVD9 R5
Тип релиза: DVDRip
Контейнер: AVI

Видео: 720x304 (2,35:1), 25 fps, XviD ~ 1204 kbps avg, 0.220 bit/pixel
Аудио: 48 kHz, MP3 2.0, 128 kbps

Раздача от:
Общее
Полное имя : Predsedatel.1964.DVDRip-1.46_[New-team]_by_AVP_Studio.avi
Формат : AVI
Формат/Информация : Audio Video Interleave
Размер файла : 638 Мбайт
Продолжительность : 1 ч. 6 м.
Общий поток : 1342 Кбит/сек
Программа кодирования : VirtualDubModRus 1.5.10.2 (build 2542/release)
Библиотека кодирования : VirtualDubMod build 2542/release

Видео
Идентификатор : 0
Формат : MPEG-4 Visual
Профиль формата : Advanced Simple@L5
Параметр BVOP формата : 1
Параметр QPel формата : Нет
Параметр GMC формата : Без точки перехода
Параметр матрицы формата : Выборочная
Идентификатор кодека : XVID
Идентификатор кодека/Подсказка : XviD
Продолжительность : 1 ч. 6 м.
Битрейт : 1204 Кбит/сек
Ширина : 720 пикселей
Высота : 304 пикселя
Соотношение сторон : 2,35:1
Частота кадров : 25,000 кадров/сек
Цветовое пространство : YUV
Субдискретизация насыщенности : 4:2:0
Битовая глубина : 8 бит
Тип развёртки : Прогрессивная
Метод сжатия : С потерями
Бит/(Пиксели*Кадры) : 0.220
Размер потока : 572 Мбайт (90%)
Библиотека кодирования : XviD 73

Аудио
Идентификатор : 1
Формат : MPEG Audio
Версия формата : Version 1
Профиль формата : Layer 3
Идентификатор кодека : 55
Идентификатор кодека/Подсказка : MP3
Продолжительность : 1 ч. 6 м.
Вид битрейта : Постоянный
Битрейт : 128 Кбит/сек
Каналы : 2 канала
Частота : 48,0 КГц
Метод сжатия : С потерями
Размер потока : 60,8 Мбайт (10%)
Выравнивание : Соединение по промежуткам
Продолжительность промежутка : 40 мс. (1,00 видеокадр)
Время предзагрузки промежутка : 504 мс.
Библиотека кодирования : LAME3.99r
Настройки программы : -m s -V 4 -q 2 -lowpass 17 -b 128



Премия по разделу фильмов современной тематики на ВКФ в Киеве (1966)
Михаил Ульянов получил Ленинскую премию (1966) за исполнение роли Егора Трубникова
За роль Егора Трубникова Михаил Ульянов признан лучшим актёром 1965 года (по опросу журнала «Советский экран»)
Прообразом Егора Трубникова был знаменитый белорусский партизан Кирилл Орловский



   Похожие торренты   Торрент   Размер 
В этой теме нет новых непрочитанных сообщений. Председатель (1964) DVDRip-AVC от New-Team

73 | 10

2.18 ГБ

В этой теме нет новых непрочитанных сообщений. Председатель (1964) DVDRip от New-Team

52 | 22

2.19 ГБ

В этой теме нет новых непрочитанных сообщений. Председатель (1964) DVDRip

342 | 29

2.74 ГБ

В этой теме нет новых непрочитанных сообщений. Морозко (1964) DVDRip-AVC от New-Team

304 | 20

1.95 ГБ

В этой теме нет новых непрочитанных сообщений. Морозко (1964) DVDRip от New-Team

151 | 24

1.46 ГБ

В этой теме нет новых непрочитанных сообщений. Взорвите банк / Faites sauter la banque! (1964) DVDRip от New-Team

47 | 10

742.65 МБ

В этой теме нет новых непрочитанных сообщений. Взорвите банк / Faites sauter la banque! (1964) DVDRip от New-Team

77 | 26

1.46 ГБ




Вы не можете начинать темы
Вы не можете отвечать на сообщения
Вы не можете редактировать свои сообщения
Вы не можете удалять свои сообщения
Вы не можете добавлять вложения

Перейти:  
Для Мосгорсуда, Роскомнадзора и рекламодателей: mosgorsud-torrent[собачка]yandex.ru
 Вход
ppkBB3cker v.2 © 2008-2014 @ PPK
[ Time : 0.040s | 15 Queries | GZIP : Off ]

Торрент трекер RUTOR.IN, Не можете зайти на rutor.org? Какой новый адрес рутор? Какое зеркало рутор? Не работает rutor.org и зеркала? Тогда наш торрент специально для вас. Rutor.in неофициальное зеркало rutor. В случае если у Вас заблокирован rutor или вдруг Вы не можете на него зайти, то Вы без труда сможете скачать бесплатно и без рекламы последние новинки кино, игр, сериалов и прочего у нас, на Rutor.in. Не нужно использовать прокси, чтобы зайти на рутор, достаточно воспользоваться нашим ресурсом. Все новые фильмы, игры, сериалы, книги и музыка за 2013 и 2014 годы через торрент бесплатно. Скачивайте фильмы в хорошем качестве, игры для пк, xbox, playstation без регистрации. У нас вы найдете новые Зарубежные сериалы и Русские сериалы 2013, 2014, 2015 годов. Оставайтесь с нами, качайте любимые фильмы, игры, сериалы, книги и музыку.