img image001 image001 image001 image001 image001 image001 image001 image001 image001 image001 image001 image001 image001 image001 image001

Planets Sun Sun Sun
Статистика раздачи
Автор: Nickolas3434 | Размер: 2.18 ГБ | Добавлен: 21 мар 2014
Раздают: 73    Качают: 10
Скачать торрент
Скачать торрент
Описание торрента

СообщениеДобавлено: 21 мар 2014 

Страна: СССР
Производство: Мосфильм

Жанр: драма
Год выпуска: 1964
Продолжительность: 02:35:28 (01:29:01 + 01:06:27)

Перевод: не требуется
Оригинальная аудиодорожка: русский
Cубтитры: нет

Режиссер: Алексей Салтыков

В ролях:
Михаил Ульянов, Иван Лапиков, Нонна Мордюкова, Лариса Блинова, Вячеслав Невинный, Валентина Владимирова, Николай Парфенов, Кира Головко, Антонина Богданова, Владимир Этуш, Сергей Курилов, Аркадий Трусов, Михаил Кокшенов, Сергей Голованов, Виталий Соломин...

Описание:
Фронтовик Егор Трубников возвращается в родную деревню восстанавливать разоренное, нищее хозяйство. Тяжко ему приходится — почти как на войне.
Став председателем, он взваливает на себя бремя ответственности не только за колхозные дела, но и за судьбы таких близких ему людей…





Исходник: DVD9 R5
Тип релиза: DVDRip-AVC
Контейнер: MKV

Видео: 720->1006x428 (2,35:1), 25 fps, H264 ~ 1818 kbps avg, 0.236 bit/pixel
Аудио: 48 kHz, Dolby AC3 2.0, 192 kbps

Раздача от:
Общее
Полное имя : Predsedatel.1964.DVDRip-AVC_[New-team]_by_AVP_Studio.mkv
Формат : Matroska
Версия формата : Version 2
Размер файла : 1,25 Гбайт
Продолжительность : 1 ч. 29 м.
Общий поток : 2012 Кбит/сек
Дата кодирования : UTC 2014-03-20 00:53:40
Программа кодирования : mkvmerge v6.1.0 ('Old Devil') built on Mar 4 2013 09:10:42
Библиотека кодирования : libebml v1.3.0 + libmatroska v1.4.0

Видео
Идентификатор : 1
Формат : AVC
Формат/Информация : Advanced Video Codec
Профиль формата : High@L4.1
Параметр CABAC формата : Да
Параметр ReFrames формата : 8 кадров
Идентификатор кодека : V_MPEG4/ISO/AVC
Продолжительность : 1 ч. 29 м.
Битрейт : 1818 Кбит/сек
Ширина : 720 пикселей
Высота : 428 пикселей
Соотношение сторон : 2,35:1
Режим частоты кадров : Постоянный
Частота кадров : 25,000 кадров/сек
Цветовое пространство : YUV
Субдискретизация насыщенности : 4:2:0
Битовая глубина : 8 бит
Тип развёртки : Прогрессивная
Бит/(Пиксели*Кадры) : 0.236
Размер потока : 1,11 Гбайт (88%)
Библиотека кодирования : x264 core 138 r2356 a1d3d17
Настройки программы : cabac=1 / ref=8 / deblock=1:-2:-1 / analyse=0x3:0x113 / me=umh / subme=10 / psy=1 / psy_rd=1.00:0.05 / mixed_ref=1 / me_range=32 / chroma_me=1 / trellis=2 / 8x8dct=1 / cqm=0 / deadzone=21,11 / fast_pskip=0 / chroma_qp_offset=-3 / threads=3 / lookahead_threads=1 / sliced_threads=0 / nr=0 / decimate=0 / interlaced=0 / bluray_compat=0 / constrained_intra=0 / bframes=8 / b_pyramid=2 / b_adapt=2 / b_bias=0 / direct=3 / weightb=1 / open_gop=0 / weightp=2 / keyint=250 / keyint_min=25 / scenecut=40 / intra_refresh=0 / rc=2pass / mbtree=0 / bitrate=1818 / ratetol=1.0 / qcomp=0.60 / qpmin=0 / qpmax=69 / qpstep=4 / cplxblur=20.0 / qblur=0.5 / ip_ratio=1.40 / pb_ratio=1.30 / aq=1:1.00
Default : Да
Forced : Нет

Аудио
Идентификатор : 2
Формат : AC-3
Формат/Информация : Audio Coding 3
Расширение режима : CM (complete main)
Параметр Endianness формата : Big
Идентификатор кодека : A_AC3
Продолжительность : 1 ч. 29 м.
Вид битрейта : Постоянный
Битрейт : 192 Кбит/сек
Каналы : 2 канала
Расположение каналов : Front: L R
Частота : 48,0 КГц
Битовая глубина : 16 бит
Метод сжатия : С потерями
Размер потока : 122 Мбайт (10%)
Default : Да
Forced : Нет



Премия по разделу фильмов современной тематики на ВКФ в Киеве (1966)
Михаил Ульянов получил Ленинскую премию (1966) за исполнение роли Егора Трубникова
За роль Егора Трубникова Михаил Ульянов признан лучшим актёром 1965 года (по опросу журнала «Советский экран»)
Прообразом Егора Трубникова был знаменитый белорусский партизан Кирилл Орловский



   Похожие торренты   Торрент   Размер 
В этой теме нет новых непрочитанных сообщений. Председатель (1964) DVDRip от New-Team

52 | 22

2.19 ГБ

В этой теме нет новых непрочитанных сообщений. Председатель (1964) DVDRip от New-Team

44 | 14

1.46 ГБ

В этой теме нет новых непрочитанных сообщений. Председатель (1964) DVDRip

342 | 29

2.74 ГБ

В этой теме нет новых непрочитанных сообщений. Морозко (1964) DVDRip-AVC от New-Team

295 | 22

1.95 ГБ

В этой теме нет новых непрочитанных сообщений. Морозко (1964) DVDRip от New-Team

152 | 24

1.46 ГБ

В этой теме нет новых непрочитанных сообщений. Взорвите банк / Faites sauter la banque! (1964) DVDRip от New-Team

47 | 10

742.65 МБ

В этой теме нет новых непрочитанных сообщений. Взорвите банк / Faites sauter la banque! (1964) DVDRip-AVC от New-Team

34 | 15

1.46 ГБ




Вы не можете начинать темы
Вы не можете отвечать на сообщения
Вы не можете редактировать свои сообщения
Вы не можете удалять свои сообщения
Вы не можете добавлять вложения

Перейти:  
Для Мосгорсуда, Роскомнадзора и рекламодателей: mosgorsud-torrent[собачка]yandex.ru
 Вход
ppkBB3cker v.2 © 2008-2014 @ PPK
[ Time : 0.068s | 15 Queries | GZIP : Off ]

Торрент трекер RUTOR.IN, Не можете зайти на rutor.org? Какой новый адрес рутор? Какое зеркало рутор? Не работает rutor.org и зеркала? Тогда наш торрент специально для вас. Rutor.in неофициальное зеркало rutor. В случае если у Вас заблокирован rutor или вдруг Вы не можете на него зайти, то Вы без труда сможете скачать бесплатно и без рекламы последние новинки кино, игр, сериалов и прочего у нас, на Rutor.in. Не нужно использовать прокси, чтобы зайти на рутор, достаточно воспользоваться нашим ресурсом. Все новые фильмы, игры, сериалы, книги и музыка за 2013 и 2014 годы через торрент бесплатно. Скачивайте фильмы в хорошем качестве, игры для пк, xbox, playstation без регистрации. У нас вы найдете новые Зарубежные сериалы и Русские сериалы 2013, 2014, 2015 годов. Оставайтесь с нами, качайте любимые фильмы, игры, сериалы, книги и музыку.