img image001 image001 image001 image001 image001 image001 image001 image001 image001 image001 image001 image001 image001 image001 image001

Planets Sun Sun Sun
Статистика раздачи
Автор: Nickolas3434 | Размер: 747.01 МБ | Добавлен: 21 мар 2014
Раздают: 119    Качают: 8
Скачать торрент
Скачать торрент
Описание торрента

СообщениеДобавлено: 21 мар 2014 

Информация о фильме
Название: Вий
Год выхода: 1967
Жанр: Советское кино, ужасы, драма
Режиссер: Георгий Кропачев, Константин Ершов
В ролях: Леонид Куравлев, Наталья Варлей, Алексей Глазырин, Николай Кутузов, Вадим Захарченко, Петр Вескляров, Владимир Сальников, Дмитрий Капка, Степан Шкурат, Георгий Сочевко

О фильме:
Каникулы Киевской семинарии оказались роковыми для философа Хомы Брута. Попросившись на ночлег в заброшенный хутор, он лицом к лицу столкнулся с дряхлой ведьмой, наложившей на Хому злые чары. Кое-как вырвавшись от карги, избив ее до полусмерти, он с ужасом узнает, что умирающая панночка, в которую обратилась ведьма на заре, просит именно его читать по ней заупокойную службу. Три ночи сражается Хома за душу усопшей, но разве можно противостоять зловещему Вию?..
Страна: СССР
Студия: Мосфильм
Продолжительность: 01:12:00
Перевод: Не требуется
Семпл.avi

Файл
Кодек: XviD (AVI)
Качество: WEB-DLRip
Видео: MPEG4, XviD, 720x536 (4:3), 25.000 fps, 1 313 Kbps (0.136 bit/pixel)
Звук: MP3, 48.0 KHz, 2 ch, 128 Kbps, CBR
Общее
Полное имя : D:Рипы выкладка [Deadmauvlad]Рипы готовыеVij_1967_WEB-DLRip.747_MB.Deadmauvlad.avi
Формат : AVI
Формат/Информация : Audio Video Interleave
Размер файла : 747 Мбайт
Продолжительность : 1 ч. 12 м.
Общий поток : 1451 Кбит/сек
Название фильма : Vij_1967_WEBDLRip.747_MB.Deadmauvlad
Режиссёр : Deadmauvlad
Жанр : ужасы
Программа кодирования : VirtualDubMod 1.5.10.3 | www.virtualdub-fr.org || (build 2550/release)
Формат оригинала/Имя : Фильм
Правообладатель : Goldenshara

Видео
Идентификатор : 0
Формат : MPEG-4 Visual
Профиль формата : Advanced Simple@L5
Параметр BVOP формата : 1
Параметр QPel формата : Нет
Параметр GMC формата : Без точки перехода
Параметр матрицы формата : Выборочная
Идентификатор кодека : XVID
Идентификатор кодека/Подсказка : XviD
Продолжительность : 1 ч. 12 м.
Битрейт : 1313 Кбит/сек
Ширина : 720 пикселей
Высота : 536 пикселей
Соотношение сторон : 4:3
Частота кадров : 25,000 кадров/сек
Цветовое пространство : YUV
Субдискретизация насыщенности : 4:2:0
Битовая глубина : 8 бит
Тип развёртки : Прогрессивная
Метод сжатия : С потерями
Бит/(Пиксели*Кадры) : 0.136
Размер потока : 676 Мбайт (91%)
Библиотека кодирования : XviD 73

Аудио
Идентификатор : 1
Формат : MPEG Audio
Версия формата : Version 1
Профиль формата : Layer 3
Идентификатор кодека : 55
Идентификатор кодека/Подсказка : MP3
Продолжительность : 1 ч. 12 м.
Вид битрейта : Постоянный
Битрейт : 128 Кбит/сек
Каналы : 2 канала
Частота : 48,0 КГц
Метод сжатия : С потерями
Размер потока : 65,9 Мбайт (9%)
Выравнивание : Соединение по промежуткам
Продолжительность промежутка : 40 мс. (1,00 видеокадр)
Время предзагрузки промежутка : 504 мс.
Библиотека кодирования : LAME3.99r
Настройки программы : -m s -V 4 -q 2 -lowpass 17 -b 128












   Похожие торренты   Торрент   Размер 
В этой теме нет новых непрочитанных сообщений. Бонни и Клайд / Bonnie and Clyde (1967) BDRip от Deadmauvlad | D

277 | 29

1.46 ГБ

В этой теме нет новых непрочитанных сообщений. Двое в пути / Двое на дороге / Two for the Road (1967) BDRip 1080p [Hi10P] от Deadmauvlad | P

7 | 6

11.64 ГБ

В этой теме нет новых непрочитанных сообщений. Марафон (2013) WEB-DLRip от Deadmauvlad

1036 | 185

748.9 МБ

В этой теме нет новых непрочитанных сообщений. Небесный суд (2012) WEB-DLRip от Deadmauvlad

274 | 30

748.88 МБ

В этой теме нет новых непрочитанных сообщений. Мерцающий / The Glimmer Man (1996) WEB-DLRip от Deadmauvlad | D

43 | 7

1.46 ГБ

В этой теме нет новых непрочитанных сообщений. Класс коррекции (2014) WEB-DLRip от Deadmauvlad

982 | 36

1.46 ГБ

В этой теме нет новых непрочитанных сообщений. Викинги / The Vikings (1958) WEB-DLRip от Deadmauvlad | D

136 | 11

1.47 ГБ




Вы не можете начинать темы
Вы не можете отвечать на сообщения
Вы не можете редактировать свои сообщения
Вы не можете удалять свои сообщения
Вы не можете добавлять вложения

Перейти:  
Для Мосгорсуда, Роскомнадзора и рекламодателей: mosgorsud-torrent[собачка]yandex.ru
 Вход
ppkBB3cker v.2 © 2008-2014 @ PPK
[ Time : 0.038s | 15 Queries | GZIP : Off ]

Торрент трекер RUTOR.IN, Не можете зайти на rutor.org? Какой новый адрес рутор? Какое зеркало рутор? Не работает rutor.org и зеркала? Тогда наш торрент специально для вас. Rutor.in неофициальное зеркало rutor. В случае если у Вас заблокирован rutor или вдруг Вы не можете на него зайти, то Вы без труда сможете скачать бесплатно и без рекламы последние новинки кино, игр, сериалов и прочего у нас, на Rutor.in. Не нужно использовать прокси, чтобы зайти на рутор, достаточно воспользоваться нашим ресурсом. Все новые фильмы, игры, сериалы, книги и музыка за 2013 и 2014 годы через торрент бесплатно. Скачивайте фильмы в хорошем качестве, игры для пк, xbox, playstation без регистрации. У нас вы найдете новые Зарубежные сериалы и Русские сериалы 2013, 2014, 2015 годов. Оставайтесь с нами, качайте любимые фильмы, игры, сериалы, книги и музыку.