img image001 image001 image001 image001 image001 image001 image001 image001 image001 image001 image001 image001 image001 image001 image001

Planets Sun Sun Sun
Статистика раздачи
Автор: Nickolas3434 | Размер: 6.57 ГБ | Добавлен: 21 мар 2014
Раздают: 8    Качают: 7
Скачать торрент
Скачать торрент
Описание торрента

СообщениеДобавлено: 21 мар 2014 


Информация о фильме
Название: Заложница
Год выпуска: 1990
Жанр: Криминал, Драма
Режиссер: Сергей Ашкенази
В ролях: Александра Захарова, Альгис Матуленис, Юрий Кузьменков, Александр Яковлев, Михаил Чигирев, Яков Левинзон


Описание:
Бежавший из колонии преступник захватывает в качестве заложницы девушку и вместе с ней направляется к границе. До тех пор, пока не успокоится милиция, он решает затаиться в охотничьем домике, находящемся в горной лощине. Проходит время - и она начинает видеть в нем не преступника, а отчаявшегося близкого человека. Но дни их счастья сочтены - милиция неумолимо идет по следу беглеца…



Интересный фильм. Трудно сказать, чем он привлекает. Есть фильмы, посмотрев которые, через месяц забудешь и название, и сюжет. Но эта история запомнилась мне сразу. С тех пор я смотрела фильм еще раз пять, минимум.
Фильм простой и понятный. Герои картины в исполнении Матулениса и Захаровой вызывают симпатию. Безумно нравится мне Юрий Кузьменков в роли инструктора по вождению. Правда, возникает ощущение, что в начале 90-х жизнь наша была какая-то совсем убогая и тоскливая.
Фильм грустный, но наверное так и должно быть. Ведь, в сущности, он о любви, о том, как внезапно она приходит, и как нелепо можно ее потерять.
Советую смотреть тем, кому нравятся психологические драмы.
За свои теплые воспоминания, ставлю
10 из 10


Продолжительность: 01:26:10
Выпущено: Одесская киностудия
Перевод: Не требуется
Доп. информация: Бонусы - трейлеры к фильмам
Меню: Разбивка по эпизодам: есть; выбор звуковой дорожки
Файл
Формат: DVD
Качество: DVD-9
Видео: MPEG-2, ~8900 kbps avg, 0.858 bit/pixel, 720x576@768x576 (4:3); 25 fps
Аудио: Audio #1: AC3, 2/0 (L,R) ch, 192 kbps, Delay 0 mSec; Audio #2: AC3, 3/2 (L,C,R,SL,SR)+LFE ch, 448 kbps, Delay 0 mSec

Title: ZALOZNICA
Size: 6.57 Gb ( 6 890 014,00 KBytes ) - DVD-9
Enabled regions: 1, 2, 3, 4, 5, 6, 7, 8
VTS_01 :
Play Length: 01:26:10
Video: PAL 4:3 (720x576) VBR
Audio:
English (Dolby AC3, 2 ch)
English (Dolby AC3, 6 ch)
* Menus Information *
VIDEO_TS Menu
Video:
PAL 4:3 (720x576) VBR
Audio:
Not specified (Dolby AC3, 2 ch)
English Language Unit :
Title Menu
VTS_01 Menu
Video:
PAL 4:3 (720x576) VBR
Audio:
Not specified (Dolby AC3, 2 ch)
English Language Unit :
Root Menu
Audio Menu
Chapter (PTT) Menu
Audio #1: AC3, 2/0 (L,R) ch, 192 kbps, Delay 0 mSec
Audio #2: AC3, 3/2 (L,C,R,SL,SR)+LFE ch, 448 kbps, Delay 0 mSec
Общее
Полное имя : ZALOZNICAVIDEO_TSVTS_01_1.VOB
Формат : MPEG-PS
Размер файла : 1023 Мбайт
Продолжительность : 14 м.
Общий поток : 9702 Кбит/сек
Видео
Идентификатор : 224 (0xE0)
Формат : MPEG Video
Версия формата : Version 2
Профиль формата : Main@Main
Параметр BVOP формата : Да
Параметр матрицы формата : Выборочная
Параметр GOP формата : M=3, N=12
Продолжительность : 14 м.
Битрейт : 8900 Кбит/сек
Ширина : 720 пикселей
Высота : 576 пикселей
Соотношение сторон : 4:3
Частота кадров : 25,000 кадров/сек
Стандарт вещания : PAL
Цветовое пространство : YUV
Субдискретизация насыщенности : 4:2:0
Битовая глубина : 8 бит
Тип развёртки : Чересстрочная
Порядок развёртки : Нижнее поле первое
Метод сжатия : С потерями
Бит/(Пиксели*Кадры) : 0.858
Размер потока : 936 Мбайт (91%)
Аудио #1
Идентификатор : 189 (0xBD)-128 (0x80)
Формат : AC-3
Формат/Информация : Audio Coding 3
Расширение режима : CM (complete main)
Параметр Endianness формата : Big
Режим смешивания : DVD-Video
Продолжительность : 14 м.
Вид битрейта : Постоянный
Битрейт : 192 Кбит/сек
Каналы : 2 канала
Расположение каналов : Front: L R
Частота : 48,0 КГц
Битовая глубина : 16 бит
Метод сжатия : С потерями
Размер потока : 20,3 Мбайт (2%)
Аудио #2
Идентификатор : 189 (0xBD)-129 (0x81)
Формат : AC-3
Формат/Информация : Audio Coding 3
Расширение режима : CM (complete main)
Параметр Endianness формата : Big
Режим смешивания : DVD-Video
Продолжительность : 14 м.
Вид битрейта : Постоянный
Битрейт : 448 Кбит/сек
Каналы : 6 каналов
Расположение каналов : Front: L C R, Side: L R, LFE
Частота : 48,0 КГц
Битовая глубина : 16 бит
Метод сжатия : С потерями
Размер потока : 47,2 Мбайт (5%)








   Похожие торренты   Торрент   Размер 
В этой теме нет новых непрочитанных сообщений. Заложница (1990) DVDRip

19 | 5

1.37 ГБ

В этой теме нет новых непрочитанных сообщений. Заложница (1990) DVD5 от Generalfilm

9 | 7

4.36 ГБ

В этой теме нет новых непрочитанных сообщений. Заложница 3 / Taken 3 (2014) DVD9 | Custom

54 | 8

7.39 ГБ

В этой теме нет новых непрочитанных сообщений. Заложница 3 / Taken 3 (2014) DVD9 | Расширенная версия

81 | 22

7.09 ГБ

В этой теме нет новых непрочитанных сообщений. Заложница 2 / Taken 2 (2012) DVD9 | Лицензия | Театральная версия / Theatrical Cut

2 | 2

6.65 ГБ

В этой теме нет новых непрочитанных сообщений. Оно / It (1990) DVD9

19 | 5

7.76 ГБ

В этой теме нет новых непрочитанных сообщений. Униженные и оскорбленные (1990) DVD9 | Реставрация

14 | 3

6.68 ГБ




Вы не можете начинать темы
Вы не можете отвечать на сообщения
Вы не можете редактировать свои сообщения
Вы не можете удалять свои сообщения
Вы не можете добавлять вложения

Перейти:  
Для Мосгорсуда, Роскомнадзора и рекламодателей: mosgorsud-torrent[собачка]yandex.ru
 Вход
ppkBB3cker v.2 © 2008-2014 @ PPK
[ Time : 0.035s | 14 Queries | GZIP : Off ]

Торрент трекер RUTOR.IN, Не можете зайти на rutor.org? Какой новый адрес рутор? Какое зеркало рутор? Не работает rutor.org и зеркала? Тогда наш торрент специально для вас. Rutor.in неофициальное зеркало rutor. В случае если у Вас заблокирован rutor или вдруг Вы не можете на него зайти, то Вы без труда сможете скачать бесплатно и без рекламы последние новинки кино, игр, сериалов и прочего у нас, на Rutor.in. Не нужно использовать прокси, чтобы зайти на рутор, достаточно воспользоваться нашим ресурсом. Все новые фильмы, игры, сериалы, книги и музыка за 2013 и 2014 годы через торрент бесплатно. Скачивайте фильмы в хорошем качестве, игры для пк, xbox, playstation без регистрации. У нас вы найдете новые Зарубежные сериалы и Русские сериалы 2013, 2014, 2015 годов. Оставайтесь с нами, качайте любимые фильмы, игры, сериалы, книги и музыку.