img image001 image001 image001 image001 image001 image001 image001 image001 image001 image001 image001 image001 image001 image001 image001

Planets Sun Sun Sun
Статистика раздачи
Автор: Nickolas3434 | Размер: 17.19 ГБ | Добавлен: 22 мар 2014
Раздают: 4    Качают: 17
Скачать торрент
Скачать торрент
Описание торрента

СообщениеДобавлено: 22 мар 2014 

Информация о фильме
Название: О, счастливчик!
Год выхода: 2009
Жанр: Комедия, приключения, фэнтези
Режиссёр: Эдуард Парри
В ролях: Михаил Тарабукин, Владимир Меньшов, Сергей Шакуров, Владимир Кристовский, Ольга Полякова, Вячеслав Разбегаев, Семен Фурман, Сергей Векслер, Армен Джигарханян, Алексей Панин, Андрей Мерзликин, Максим Коновалов, Виталий Хаев, Сергей Зверев, Александр Стефанцов, Игорь Куролесов, Алексей Дмитриев, Александр Ясинский, Евгений Хоменок, Дмитрий Гаврилов, Елена Лабутина

О фильме:
Это молодёжная комедия о том, как в один прекрасный день, Славику, обычному молодому человеку показалось, что жизнь его слишком банальна, непримечательна и лишена всяческого смысла. У него нет приличной работы, образования, девушки… Он решает умереть, прыгнув с моста. Но неожиданно появляются два экстравагантных джентльмена: Олег Генрихович и Константин Германович, которые убеждают героя в том, что самоубийство - не выход. Ему предлагают поменять свою биографию и начать новую благополучную жизнь. Но как только Славик избавляется от собственных проблем, тут же начинаются новые! Игра в «чужую» жизнь превращается в калейдоскоп веселых, грустных, а порой и страшных историй...



Выпущено: Россия, Star Media
Продолжительность: 01:35:53
Перевод: Не требуется

Файл
Формат: MPEG-4 AVC
Качество: Blu-Ray Remux (1080p) (Исходник: Blu-Ray (1080p) от HDClub)
Видео: MPEG-4 AVC, 24,5 Мбит/с, 1920x1080 (16:9), 24 кадр/с
Аудио: Русский, Dolby AC3, 48000 Гц, 640 Кбит/с, 6 каналов (5.1)
Субтитры: Русские

Автор ремукса - ivandubskoj

Общее
Уникальный идентификатор : 216596482795906769983605567427737187221 (0xA2F2F717C6ED7B7BAD958D8C3B6E7395)
Полное имя : O.schastlivchik.2009.BDRemux.1080p.mkv
Формат : Matroska
Версия формата : Version 4 / Version 2
Размер файла : 17,2 Гбайт
Продолжительность : 1 ч. 35 м.
Режим общего битрейта : Переменный
Общий поток : 25,7 Мбит/сек
Дата кодирования : UTC 2014-03-21 18:27:55
Программа кодирования : mkvmerge v6.1.0 ('Old Devil') built on Mar 4 2013 09:10:42
Библиотека кодирования : libebml v1.3.0 + libmatroska v1.4.0

Видео
Идентификатор : 1
Формат : AVC
Формат/Информация : Advanced Video Codec
Профиль формата : High@L4.1
Параметр CABAC формата : Да
Параметр ReFrames формата : 4 кадра
Параметр GOP формата : M=3, N=18
Идентификатор кодека : V_MPEG4/ISO/AVC
Продолжительность : 1 ч. 35 м.
Вид битрейта : Переменный
Битрейт : 24,5 Мбит/сек
Максимальный битрейт : 30,0 Мбит/сек
Ширина : 1920 пикселей
Высота : 1080 пикселей
Соотношение сторон : 16:9
Режим частоты кадров : Постоянный
Частота кадров : 24,000 кадра/сек
Стандарт вещания : NTSC
Цветовое пространство : YUV
Субдискретизация насыщенности : 4:2:0
Битовая глубина : 8 бит
Тип развёртки : Прогрессивная
Бит/(Пиксели*Кадры) : 0.493
Размер потока : 16,4 Гбайт (96%)
Default : Да
Forced : Нет
Основные цвета : BT.709
Характеристики трансфера : BT.709
Коэффициенты матрицы : BT.709

Аудио
Идентификатор : 2
Формат : AC-3
Формат/Информация : Audio Coding 3
Расширение режима : CM (complete main)
Параметр Endianness формата : Big
Идентификатор кодека : A_AC3
Продолжительность : 1 ч. 35 м.
Вид битрейта : Постоянный
Битрейт : 640 Кбит/сек
Каналы : 6 каналов
Расположение каналов : Front: L C R, Side: L R, LFE
Частота : 48,0 КГц
Битовая глубина : 16 бит
Метод сжатия : С потерями
Размер потока : 439 Мбайт (2%)
Язык : Russian
Default : Да
Forced : Нет

Текст
Идентификатор : 3
Формат : PGS
Идентификатор кодека : S_HDMV/PGS
Идентификатор кодека/Информация : The same subtitle format used on BDs/HD-DVDs
Язык : Russian
Default : Да
Forced : Нет

Меню
00:00:00.000 : en:Chapter 0
00:05:02.291 : en:Chapter 0
00:16:06.916 : en:Chapter 0
00:22:08.916 : en:Chapter 0
00:30:50.750 : en:Chapter 0
00:37:01.583 : en:Chapter 0
00:42:19.125 : en:Chapter 0
00:49:46.541 : en:Chapter 0
01:00:50.500 : en:Chapter 0
01:08:29.541 : en:Chapter 0
01:21:59.000 : en:Chapter 0
01:32:25.541 : en:Chapter 0
01:35:51.416 : en:Chapter 0




   Похожие торренты   Торрент   Размер 
В этой теме нет новых непрочитанных сообщений. О, счастливчик! (2009) Blu-Ray Remux 1080p от ivandubskoj | Лицензия

3 | 6

18.18 ГБ

В этой теме нет новых непрочитанных сообщений. Ласковый май (2009) Blu-ray Remux (1080p) от ivandubskoj | Лицензия

43 | 15

17.15 ГБ

В этой теме нет новых непрочитанных сообщений. О, счастливчик! (2009) BDRip от ivandubskoj | Лицензия

87 | 19

745.17 МБ

В этой теме нет новых непрочитанных сообщений. О, счастливчик! (2009) BDRip 720p от ivandubskoj | Лицензия

134 | 29

4.38 ГБ

В этой теме нет новых непрочитанных сообщений. Дурак (2014) Blu-ray Remux 1080p от ivandubskoj

18 | 15

20.56 ГБ

В этой теме нет новых непрочитанных сообщений. Бандитки / Bandidas (2006) Blu-ray Remux 1080p от ivandubskoj | D, P, A

25 | 14

15.56 ГБ

В этой теме нет новых непрочитанных сообщений. Код апокалипсиса (2007) Blu-Ray Remux 1080p от ivandubskoj | Лицензия

17 | 4

20.51 ГБ




Вы не можете начинать темы
Вы не можете отвечать на сообщения
Вы не можете редактировать свои сообщения
Вы не можете удалять свои сообщения
Вы не можете добавлять вложения

Перейти:  
Для Мосгорсуда, Роскомнадзора и рекламодателей: mosgorsud-torrent[собачка]yandex.ru
 Вход
ppkBB3cker v.2 © 2008-2014 @ PPK
[ Time : 0.070s | 16 Queries | GZIP : Off ]

Торрент трекер RUTOR.IN, Не можете зайти на rutor.org? Какой новый адрес рутор? Какое зеркало рутор? Не работает rutor.org и зеркала? Тогда наш торрент специально для вас. Rutor.in неофициальное зеркало rutor. В случае если у Вас заблокирован rutor или вдруг Вы не можете на него зайти, то Вы без труда сможете скачать бесплатно и без рекламы последние новинки кино, игр, сериалов и прочего у нас, на Rutor.in. Не нужно использовать прокси, чтобы зайти на рутор, достаточно воспользоваться нашим ресурсом. Все новые фильмы, игры, сериалы, книги и музыка за 2013 и 2014 годы через торрент бесплатно. Скачивайте фильмы в хорошем качестве, игры для пк, xbox, playstation без регистрации. У нас вы найдете новые Зарубежные сериалы и Русские сериалы 2013, 2014, 2015 годов. Оставайтесь с нами, качайте любимые фильмы, игры, сериалы, книги и музыку.
cron