img image001 image001 image001 image001 image001 image001 image001 image001 image001 image001 image001 image001 image001 image001 image001

Planets Sun Sun Sun
Статистика раздачи
Автор: Nickolas3434 | Размер: 9.31 ГБ | Добавлен: 23 мар 2014
Раздают: 135    Качают: 74
Скачать торрент
Скачать торрент
Описание торрента

СообщениеДобавлено: 23 мар 2014 

Информация о фильме
Оригинальное название: Белое солнце пустыни
Год выпуска: 1969
Жанр: Боевик, драма, мелодрама, комедия, приключения, военный
Режиссер: Владимир Мотыль
В ролях: Анатолий Кузнецов, Павел Луспекаев, Спартак Мишулин, Кахи Кавсадзе, Николай Годовиков, Раиса Куркина, Муса Дудаев, Николай Бадьев, Владимир Кадочников, Галина Лучай, Татьяна Федотова, Татьяна Ткач, Велта Деглав, Светлана Сливинская, Алла Лименес, Лидия Смирнова, Зинаида Рахматова, Татьяна Кричевская, Татьяна Денисова, Яков Ленц, Ираклий Нижарадзе, Игорь Милонов, Андрей Смирнов, Александр Соколов, Александр Массарский, Галина Дашевская, Галина Умпелева, Виталий Матвеев, Яков Базелян

Описание: Бесконечная пустыня, боец Сухов, прикуривающий с динамитной шашки, нескладный Петруха с вечно заклинивающей трехлинейкой, обаятельный Верещагин, с надоевшей черной икрой и знаменитыми песнями-балладами, ловкий Саид с незабвенным «Стреляли», злодей Абдулла со своей бандой, любознательная Гульчатай, играющая с черепахою…


Страна: СССР
Студия: Мосфильм, Ленфильм
Продолжительность: 01:23:31

Файл
Качество: BDRip 1080p
Видео: MPEG-4 AVC, 14 Mбит/с, 1480x1080, 23.976 кадр/с
Аудио #1: Русский (AC3, 6 ch, 448 Кбит/с)
Аудио #2: Русский (DTS, 6 ch, 1509 Кбит/с)



x264 [info]: frame I:726 Avg QP:18.49 size:228012
x264 [info]: frame P:26300 Avg QP:20.88 size:134177
x264 [info]: frame B:93134 Avg QP:22.51 size: 54499
x264 [info]: consecutive B-frames: 2.4% 3.3% 8.9% 11.9% 13.8% 49.6% 9.1% 0.4% 0.4% 0.0% 0.0%
*************************************************************************************************************
Общее
Уникальный идентификатор : 236061849042747337975417763318389290712 (0xB197DBBEC8BC17BA8559269E024436D8)
Полное имя : D:Mои раздачиBeloe.solnce.pustyni.1969.BDRip.1080p-MediaClub.mkv
Формат : Matroska
Версия формата : Version 4 / Version 2
Размер файла : 9,31 Гбайт
Продолжительность : 1 ч. 23 м.
Общий поток : 16,0 Мбит/сек
Название фильма : -=MediaClub-kaspr=-
Дата кодирования : UTC 2014-03-22 05:10:45
Программа кодирования : mkvmerge v6.8.0 ('Theme for Great Cities') 64bit built on Mar 2 2014 21:34:26
Библиотека кодирования : libebml v1.3.0 + libmatroska v1.4.1

Видео
Идентификатор : 1
Формат : AVC
Формат/Информация : Advanced Video Codec
Профиль формата : High@L4.1
Параметр CABAC формата : Да
Параметр ReFrames формата : 4 кадра
Идентификатор кодека : V_MPEG4/ISO/AVC
Продолжительность : 1 ч. 23 м.
Битрейт : 14,0 Мбит/сек
Ширина : 1480 пикселей
Высота : 1080 пикселей
Соотношение сторон : 4:3
Режим частоты кадров : Постоянный
Частота кадров : 23,976 кадра/сек
Цветовое пространство : YUV
Субдискретизация насыщенности : 4:2:0
Битовая глубина : 8 бит
Тип развёртки : Прогрессивная
Бит/(Пиксели*Кадры) : 0.365
Размер потока : 7,98 Гбайт (86%)
Заголовок : -=MediaClub-kaspr=-
Библиотека кодирования : x264 core 142 r2409+42 04be48a tMod [8-bit@4:2:0 X86_64]
Настройки программы : cabac=1 / ref=4 / deblock=1:-3:-3 / analyse=0x3:0x113 / me=umh / subme=11 / psy=1 / fade_compensate=0.00 / psy_rd=1.00:0.20 / mixed_ref=1 / me_range=32 / chroma_me=1 / trellis=2 / 8x8dct=1 / cqm=0 / deadzone=21,11 / fast_pskip=0 / chroma_qp_offset=-3 / threads=12 / lookahead_threads=3 / sliced_threads=0 / nr=0 / decimate=0 / interlaced=0 / bluray_compat=0 / constrained_intra=0 / fgo=0 / bframes=10 / b_pyramid=2 / b_adapt=2 / b_bias=0 / direct=3 / weightb=1 / open_gop=0 / weightp=2 / keyint=240 / keyint_min=23 / scenecut=40 / intra_refresh=0 / rc=2pass / mbtree=0 / bitrate=14000 / ratetol=1.0 / qcomp=0.60 / qpmin=0:0:0 / qpmax=69:69:69 / qpstep=4 / cplxblur=20.0 / qblur=0.5 / ip_ratio=1.40 / pb_ratio=1.30 / aq=2:1.00 / aq-sensitivity=10.00 / aq-factor=1.00:1.00:1.00 / aq2=0 / aq3=0
Default : Да
Forced : Да

Аудио #1
Идентификатор : 2
Формат : AC-3
Формат/Информация : Audio Coding 3
Расширение режима : CM (complete main)
Параметр Endianness формата : Big
Идентификатор кодека : A_AC3
Продолжительность : 1 ч. 23 м.
Вид битрейта : Постоянный
Битрейт : 448 Кбит/сек
Каналы : 6 каналов
Расположение каналов : Front: L C R, Side: L R, LFE
Частота : 48,0 КГц
Битовая глубина : 16 бит
Метод сжатия : С потерями
Размер потока : 268 Мбайт (3%)
Заголовок : AC3
Язык : Russian
Default : Да
Forced : Да

Аудио #2
Идентификатор : 3
Формат : DTS
Формат/Информация : Digital Theater Systems
Режим : 16
Параметр Endianness формата : Big
Идентификатор кодека : A_DTS
Продолжительность : 1 ч. 23 м.
Вид битрейта : Постоянный
Битрейт : 1509 Кбит/сек
Каналы : 6 каналов
Расположение каналов : Front: L C R, Side: L R, LFE
Частота : 48,0 КГц
Битовая глубина : 24 бит
Метод сжатия : С потерями
Размер потока : 902 Мбайт (9%)
Заголовок : DTS
Язык : Russian
Default : Нет
Forced : Нет

Меню
00:00:00.000 : en:Chapter 01
00:07:01.879 : en:Chapter 02
00:15:34.099 : en:Chapter 03
00:24:16.705 : en:Chapter 04
00:32:32.700 : en:Chapter 05
00:41:02.710 : en:Chapter 06
00:44:27.539 : en:Chapter 07
00:50:30.569 : en:Chapter 08
00:55:03.216 : en:Chapter 09
01:00:54.609 : en:Chapter 10
01:07:45.686 : en:Chapter 11
01:15:21.808 : en:Chapter 12


Релиз: |



   Похожие торренты   Торрент   Размер 
В этой теме нет новых непрочитанных сообщений. Белое солнце пустыни (1969) BDRip-AVC от MediaClub

45 | 9

2.07 ГБ

В этой теме нет новых непрочитанных сообщений. Белое солнце пустыни (1969) BDRip от MediaClub | КПК

34 | 8

375.02 МБ

В этой теме нет новых непрочитанных сообщений. Белое солнце пустыни (1969) BDRip 1080p

604 | 73

5.76 ГБ

В этой теме нет новых непрочитанных сообщений. Белое солнце пустыни (1969) BDRip 1080p от New-Team

367 | 26

6.57 ГБ

В этой теме нет новых непрочитанных сообщений. Белое солнце пустыни (1969) Blu-Ray 1080p

36 | 4

20.59 ГБ

В этой теме нет новых непрочитанных сообщений. Белое солнце пустыни (1969) Blu-Ray Remux 1080p

323 | 35

13.03 ГБ

В этой теме нет новых непрочитанных сообщений. Белое солнце пустыни (1969) BDRip

63 | 18

1.48 ГБ




Вы не можете начинать темы
Вы не можете отвечать на сообщения
Вы не можете редактировать свои сообщения
Вы не можете удалять свои сообщения
Вы не можете добавлять вложения

Перейти:  
Для Мосгорсуда, Роскомнадзора и рекламодателей: mosgorsud-torrent[собачка]yandex.ru
 Вход
ppkBB3cker v.2 © 2008-2014 @ PPK
[ Time : 0.028s | 19 Queries | GZIP : Off ]

cron