img image001 image001 image001 image001 image001 image001 image001 image001 image001 image001 image001 image001 image001 image001 image001

Planets Sun Sun Sun
Статистика раздачи
Автор: Nickolas3434 | Размер: 8.38 ГБ | Добавлен: 23 мар 2014
Раздают: 430    Качают: 53
Скачать торрент
Скачать торрент
Описание торрента

СообщениеДобавлено: 23 мар 2014 

Информация о фильме
Название: Девчата
Год выхода: 1961
Жанр: Комедия
Режиссер: Юрий Чулюкин
В ролях: Надежда Румянцева, Николай Рыбников, Люсьена Овчинникова, Станислав Хитров, Инна Макарова, Светлана Дружинина, Нина Меньшикова, Николай Погодин, Михаил Пуговкин, Анатолий Адоскин, Виктор Байков, Роман Филиппов, Алексей Крыченков, Петр Кирюткин, Михаил Кокшенов

О фильме:
В отдаленный северный городок приехала Тося Кислицына, которую в тот же день приняли на работу в качестве поварихи. И в этот же день она повстречала красавца Илью, который нравился почти всем женщинам. Знакомство начинается с ссоры, но позже перерастает в любовную историю.

Страна: СССР
Студия: Мосфильм
Продолжительность: 01:36:03
Перевод: оригинал

Файл
Кодек: AVC
Качество: BDRip 1080p
Видео: MPEG-4 AVC, 11.0 Mбит/с, 1920x816, 23.976 кадр/с
Звук: Русский (DTS, 6 ch, 1510 Кбит/с)

Format : Matroska
Format version : Version 2
File size : 8.38 GiB
Duration : 1h 36mn
Overall bit rate : 12.5 Mbps
Encoded date : UTC 2012-06-12 16:47:27
Writing application : mkvmerge v5.6.0 ('Kenya Kane') built on May 27 2012 16:44:04
Writing library : libebml v1.2.3 + libmatroska v1.3.0

Video
ID : 1
Format : AVC
Format/Info : Advanced Video Codec
Format profile : High@L4.1
Format settings, CABAC : Yes
Format settings, ReFrames : 5 frames
Codec ID : V_MPEG4/ISO/AVC
Duration : 1h 36mn
Bit rate : 11.0 Mbps
Width : 1 920 pixels
Height : 816 pixels
Display aspect ratio : 2.35:1
Frame rate mode : Constant
Frame rate : 23.976 fps
Color space : YUV
Chroma subsampling : 4:2:0
Bit depth : 8 bits
Scan type : Progressive
Bits/(Pixel*Frame) : 0.293
Stream size : 7.20 GiB (86%)
Writing library : x264 core 125 r2200 999b753
Encoding settings : cabac=1 / ref=5 / deblock=1:-3:-3 / analyse=0x3:0x133 / me=umh / subme=9 / psy=1 / psy_rd=1.00:0.15 / mixed_ref=1 / me_range=24 / chroma_me=1 / trellis=1 / 8x8dct=1 / cqm=0 / deadzone=21,11 / fast_pskip=0 / chroma_qp_offset=-3 / threads=8 / lookahead_threads=1 / sliced_threads=0 / nr=0 / decimate=1 / interlaced=0 / bluray_compat=0 / constrained_intra=0 / bframes=8 / b_pyramid=2 / b_adapt=2 / b_bias=0 / direct=3 / weightb=1 / open_gop=0 / weightp=2 / keyint=250 / keyint_min=23 / scenecut=40 / intra_refresh=0 / rc_lookahead=60 / rc=abr / mbtree=1 / bitrate=11000 / ratetol=1.0 / qcomp=0.60 / qpmin=0 / qpmax=69 / qpstep=4 / ip_ratio=1.40 / aq=1:1.00
Default : Yes
Forced : No

Audio
ID : 2
Format : DTS
Format/Info : Digital Theater Systems
Mode : 16
Format settings, Endianness : Big
Codec ID : A_DTS
Duration : 1h 36mn
Bit rate mode : Constant
Bit rate : 1 509 Kbps
Channel(s) : 6 channels
Channel positions : Front: L C R, Side: L R, LFE
Sampling rate : 48.0 KHz
Bit depth : 24 bits
Compression mode : Lossy
Stream size : 1.01 GiB (12%)
Default : Yes
Forced : No




   Похожие торренты   Торрент   Размер 
В этой теме нет новых непрочитанных сообщений. Девчата (1961) BDRip 1080p

776 | 47

4.37 ГБ

В этой теме нет новых непрочитанных сообщений. Девчата (1961) Blu-Ray Remux 1080p

16 | 8

17.1 ГБ

В этой теме нет новых непрочитанных сообщений. Девчата (1961) BDRip-AVC | iPad

363 | 19

3.05 ГБ

В этой теме нет новых непрочитанных сообщений. Девчата (1961) BDRip-AVC от Youtracker

552 | 27

1.46 ГБ

В этой теме нет новых непрочитанных сообщений. Девчата (1961) BDRip от MediaClub | КПК

441 | 14

437.37 МБ

В этой теме нет новых непрочитанных сообщений. Девчата (1961) BDRip от HQCLUB

2652 | 90

1.46 ГБ

В этой теме нет новых непрочитанных сообщений. Девчата (1961) BDRip от Youtracker

160 | 11

744.62 МБ




Вы не можете начинать темы
Вы не можете отвечать на сообщения
Вы не можете редактировать свои сообщения
Вы не можете удалять свои сообщения
Вы не можете добавлять вложения

Перейти:  
Для Мосгорсуда, Роскомнадзора и рекламодателей: mosgorsud-torrent[собачка]yandex.ru
 Вход
ppkBB3cker v.2 © 2008-2014 @ PPK
[ Time : 4.051s | 15 Queries | GZIP : Off ]

Торрент трекер RUTOR.IN, Не можете зайти на rutor.org? Какой новый адрес рутор? Какое зеркало рутор? Не работает rutor.org и зеркала? Тогда наш торрент специально для вас. Rutor.in неофициальное зеркало rutor. В случае если у Вас заблокирован rutor или вдруг Вы не можете на него зайти, то Вы без труда сможете скачать бесплатно и без рекламы последние новинки кино, игр, сериалов и прочего у нас, на Rutor.in. Не нужно использовать прокси, чтобы зайти на рутор, достаточно воспользоваться нашим ресурсом. Все новые фильмы, игры, сериалы, книги и музыка за 2013 и 2014 годы через торрент бесплатно. Скачивайте фильмы в хорошем качестве, игры для пк, xbox, playstation без регистрации. У нас вы найдете новые Зарубежные сериалы и Русские сериалы 2013, 2014, 2015 годов. Оставайтесь с нами, качайте любимые фильмы, игры, сериалы, книги и музыку.