img image001 image001 image001 image001 image001 image001 image001 image001 image001 image001 image001 image001 image001 image001 image001

Planets Sun Sun Sun
Статистика раздачи
Автор: Nickolas3434 | Размер: 3.4 ГБ | Добавлен: 23 мар 2014
Раздают: 70    Качают: 33
Скачать торрент
Скачать торрент
Описание торрента

СообщениеДобавлено: 23 мар 2014 

Информация о фильме
Название: Белое солнце пустыни
Год выхода: 1969
Жанр: боевик, драма, мелодрама, комедия, приключения, военный
Режиссер: Владимир Мотыль
В ролях: Анатолий Кузнецов, Спартак Мишулин, Кахи Кавсадзе, Павел Луспекаев, Раиса Куркина, Татьяна Федотова, Николай Годовиков, Муса Дудаев, Николай Бадьев, Владимир Кадочников

О фильме:
Бесконечная пустыня, боец Сухов, прикуривающий с динамитной шашки, нескладный Петруха с вечно заклинивающей трехлинейкой, обаятельный Верещагин, с надоевшей черной икрой и знаменитыми песнями-балладами, ловкий Саид с незабвенным «Стреляли», злодей Абдулла со своей бандой, любознательная Гульчатай, играющая с черепахою…

Страна: СССР
Продолжительность: 01:23:31
Перевод: Оригинал

Файл
Кодек: x.264
Качество: BDRip 720p
Видео: 5375 kb/s, 984x720, 23.976 fps
Звук: AC3, 448 kb/s (6Ch)
Субтитры: нет



Общее
Формат : Matroska
Версия формата : Version 2
Размер файла : 3,40 Гбайт
Продолжительность : 1 ч. 23 м.
Общий поток : 5824 Кбит/сек
Название фильма : Белое солнце пустыни (1969) BDRip 720p от Neofilm
Дата кодирования : UTC 2014-03-22 11:45:41
Программа кодирования : mkvmerge v3.3.0 ('Language') built on Mar 24 2010 14:59:24
Библиотека кодирования : libebml v0.8.0 + libmatroska v0.9.0

Видео
Идентификатор : 1
Формат : AVC
Формат/Информация : Advanced Video Codec
Профиль формата : High@L4.1
Параметр CABAC формата : Да
Параметр ReFrames формата : 9 кадров
Идентификатор кодека : V_MPEG4/ISO/AVC
Продолжительность : 1 ч. 23 м.
Битрейт : 5375 Кбит/сек
Ширина : 984 пикселя
Высота : 720 пикселей
Соотношение сторон : 4:3
Режим частоты кадров : Постоянный
Частота кадров : 23,976 кадра/сек
Цветовое пространство : YUV
Субдискретизация насыщенности : 4:2:0
Битовая глубина : 8 бит
Тип развёртки : Прогрессивная
Бит/(Пиксели*Кадры) : 0.316
Размер потока : 3,07 Гбайт (90%)
Заголовок : Белое солнце пустыни (1969)
Библиотека кодирования : x264 core 138 r2358 9e941d1
Настройки программы : cabac=1 / ref=9 / deblock=1:-3:-3 / analyse=0x3:0x113 / me=umh / subme=10 / psy=1 / psy_rd=1.00:0.05 / mixed_ref=1 / me_range=32 / chroma_me=1 / trellis=2 / 8x8dct=1 / cqm=0 / deadzone=21,11 / fast_pskip=0 / chroma_qp_offset=-3 / threads=12 / lookahead_threads=2 / sliced_threads=0 / nr=0 / decimate=0 / interlaced=0 / bluray_compat=0 / constrained_intra=0 / bframes=7 / b_pyramid=2 / b_adapt=2 / b_bias=0 / direct=3 / weightb=1 / open_gop=0 / weightp=2 / keyint=240 / keyint_min=23 / scenecut=40 / intra_refresh=0 / rc_lookahead=50 / rc=2pass / mbtree=1 / bitrate=5375 / ratetol=1.0 / qcomp=0.60 / qpmin=0 / qpmax=69 / qpstep=4 / cplxblur=20.0 / qblur=0.5 / vbv_maxrate=50000 / vbv_bufsize=62500 / nal_hrd=none / ip_ratio=1.40 / aq=2:0.70
Язык : Russian
Default : Нет
Forced : Нет

Аудио
Идентификатор : 2
Формат : AC-3
Формат/Информация : Audio Coding 3
Расширение режима : CM (complete main)
Параметр Endianness формата : Big
Идентификатор кодека : A_AC3
Продолжительность : 1 ч. 23 м.
Вид битрейта : Постоянный
Битрейт : 448 Кбит/сек
Каналы : 6 каналов
Расположение каналов : Front: L C R, Side: L R, LFE
Частота : 48,0 КГц
Битовая глубина : 16 бит
Метод сжатия : С потерями
Размер потока : 268 Мбайт (8%)
Язык : Russian
Default : Да
Forced : Нет

Меню
00:00:00.000 : en:00:00:00.000
00:07:01.880 : en:00:07:01.880
00:15:34.100 : en:00:15:34.100
00:24:16.705 : en:00:24:16.705
00:32:32.701 : en:00:32:32.701
00:41:02.710 : en:00:41:02.710
00:44:27.540 : en:00:44:27.540
00:50:30.569 : en:00:50:30.569
00:55:03.217 : en:00:55:03.217
01:00:54.609 : en:01:00:54.609
01:07:45.687 : en:01:07:45.687
01:15:21.809 : en:01:15:21.809


Релиз от:



   Похожие торренты   Торрент   Размер 
В этой теме нет новых непрочитанных сообщений. Белое солнце пустыни (1969) BDRip 720p от HQ-ViDEO

40 | 45

5.86 ГБ

В этой теме нет новых непрочитанных сообщений. Белое солнце пустыни (1969) WEB-DL 720p

359 | 278

2.35 ГБ

В этой теме нет новых непрочитанных сообщений. Белое солнце пустыни (1969) WEB-DL 720p

46 | 52

2.51 ГБ

В этой теме нет новых непрочитанных сообщений. Белое солнце пустыни (1969) WEB-DL 720p

118 | 144

2.51 ГБ

В этой теме нет новых непрочитанных сообщений. Белое солнце пустыни (1969) BDRip-AVC

76 | 10

1.45 ГБ

В этой теме нет новых непрочитанных сообщений. Белое солнце пустыни (1969) BDRip

63 | 18

1.48 ГБ

В этой теме нет новых непрочитанных сообщений. Белое солнце пустыни (1969) BDRip от HQ-ViDEO

257 | 13

1.45 ГБ




Вы не можете начинать темы
Вы не можете отвечать на сообщения
Вы не можете редактировать свои сообщения
Вы не можете удалять свои сообщения
Вы не можете добавлять вложения

Перейти:  
Для Мосгорсуда, Роскомнадзора и рекламодателей: mosgorsud-torrent[собачка]yandex.ru
 Вход
ppkBB3cker v.2 © 2008-2014 @ PPK
[ Time : 0.029s | 17 Queries | GZIP : Off ]

Торрент трекер RUTOR.IN, Не можете зайти на rutor.org? Какой новый адрес рутор? Какое зеркало рутор? Не работает rutor.org и зеркала? Тогда наш торрент специально для вас. Rutor.in неофициальное зеркало rutor. В случае если у Вас заблокирован rutor или вдруг Вы не можете на него зайти, то Вы без труда сможете скачать бесплатно и без рекламы последние новинки кино, игр, сериалов и прочего у нас, на Rutor.in. Не нужно использовать прокси, чтобы зайти на рутор, достаточно воспользоваться нашим ресурсом. Все новые фильмы, игры, сериалы, книги и музыка за 2013 и 2014 годы через торрент бесплатно. Скачивайте фильмы в хорошем качестве, игры для пк, xbox, playstation без регистрации. У нас вы найдете новые Зарубежные сериалы и Русские сериалы 2013, 2014, 2015 годов. Оставайтесь с нами, качайте любимые фильмы, игры, сериалы, книги и музыку.