img image001 image001 image001 image001 image001 image001 image001 image001 image001 image001 image001 image001 image001 image001 image001

Planets Sun Sun Sun
Статистика раздачи
Автор: Nickolas3434 | Размер: 3.35 ГБ | Добавлен: 23 мар 2014
Раздают: 84    Качают: 25
Скачать торрент
Скачать торрент
Описание торрента

СообщениеДобавлено: 23 мар 2014 

Информация о фильме
Название: Баллада о солдате
Год выхода: 1959
Жанр: Драма, мелодрама, военный
Режиссер: Григорий Чухрай
В ролях: Владимир Ивашов, Жанна Прохоренко, Антонина Максимова, Евгений Евстигнеев, Николай Крючков, Георгий Юматов, Владимир Кашпур, Евгений Урбанский, Нина Меньшикова, Любовь Соколова, Валентина Ананьина, Всеволод Санаев, Геннадий Юхтин, Мария Кремнева, Валентина Маркова, Евгений Тетерин, Владимир Покровский, Валентин Абрамов, Валентин Брылеев

О фильме:
Великая Отечественная война. Молодой солдат Алёша Скворцов совершает подвиг - подбивает два немецких танка. Командование собирается представить его к ордену, но Алёша просит дать ему отпуск, чтобы повидаться с мамой. Путь домой долог и непрост. Алеша помогает безногому инвалиду встретиться с женой, девушке Шуре - добраться до тетки. Даже последнюю ночь отпуска он проводит не под родной крышей, а спасая детей от бомбежки. И у солдата Скворцова остаётся всего несколько минут, чтобы обнять мать и сказать: «Я вернусь!»


Страна: СССР / Мосфильм
Продолжительность: 01:27:55
Перевод: Оригинал

Файл
Качество: BDRip 720p
Видео: MPEG-4 AVC, 3500 Кбит/с, 984x720, 23.976 кадр/с
Звук: Русский (АС3, 6 ch, 448 Кбит/с), ( DTS, 6 ch, 1509 Кбит/с)

Семпл

Format : Matroska
Format version : Version 4 / Version 2
File size : 3.35 GiB
Duration : 1h 27mn
Overall bit rate : 5 460 Kbps
Movie name : -=MediaClub - Odessit=-
Encoded date : UTC 2014-03-22 13:46:05
Writing application : mkvmerge v6.8.0 ('Theme for Great Cities') 64bit built on Mar 2 2014 21:34:26
Writing library : libebml v1.3.0 + libmatroska v1.4.1

Video
ID : 1
Format : AVC
Format/Info : Advanced Video Codec
Format profile : High@L4.1
Format settings, CABAC : Yes
Format settings, ReFrames : 9 frames
Codec ID : V_MPEG4/ISO/AVC
Duration : 1h 27mn
Bit rate : 3 500 Kbps
Width : 984 pixels
Height : 720 pixels
Display aspect ratio : 4:3
Frame rate : 23.976 fps
Color space : YUV
Chroma subsampling : 4:2:0
Bit depth : 8 bits
Scan type : Progressive
Bits/(Pixel*Frame) : 0.206
Stream size : 2.08 GiB (62%)
Writing library : x264 core 142 r2409+42 04be48a tMod [8-bit@4:2:0 X86_64]
Encoding settings : cabac=1 / ref=9 / deblock=1:-3:-3 / analyse=0x3:0x133 / me=umh / subme=11 / psy=1 / fade_compensate=0.00 / psy_rd=1.00:0.15 / mixed_ref=1 / me_range=32 / chroma_me=1 / trellis=2 / 8x8dct=1 / cqm=0 / deadzone=21,11 / fast_pskip=0 / chroma_qp_offset=-3 / threads=6 / lookahead_threads=1 / sliced_threads=0 / nr=0 / decimate=0 / interlaced=0 / bluray_compat=0 / constrained_intra=0 / fgo=0 / bframes=10 / b_pyramid=2 / b_adapt=2 / b_bias=0 / direct=3 / weightb=1 / open_gop=0 / weightp=2 / keyint=240 / keyint_min=23 / scenecut=40 / intra_refresh=0 / rc=2pass / mbtree=0 / bitrate=3500 / ratetol=1.0 / qcomp=0.60 / qpmin=0:0:0 / qpmax=69:69:69 / qpstep=4 / cplxblur=20.0 / qblur=0.5 / ip_ratio=1.40 / pb_ratio=1.30 / aq=2:0.80 / aq-sensitivity=10.00 / aq-factor=1.00:1.00:1.00 / aq2=0 / aq3=0
Language : English

Audio #1
ID : 2
Format : AC-3
Format/Info : Audio Coding 3
Mode extension : CM (complete main)
Codec ID : A_AC3
Duration : 1h 27mn
Bit rate mode : Constant
Bit rate : 448 Kbps
Channel(s) : 6 channels
Channel positions : Front: L C R, Side: L R, LFE
Sampling rate : 48.0 KHz
Bit depth : 16 bits
Compression mode : Lossy
Stream size : 282 MiB (8%)
Language : Russian

Audio #2
ID : 3
Format : DTS
Format/Info : Digital Theater Systems
Codec ID : A_DTS
Duration : 1h 27mn
Bit rate mode : Constant
Bit rate : 1 510 Kbps
Channel(s) : 6 channels
Channel positions : Front: L C R, Side: L R, LFE
Sampling rate : 48.0 KHz
Bit depth : 24 bits
Compression mode : Lossy
Stream size : 950 MiB (28%)
Language : Russian

Menu
00:00:00.000 : :Chapter 01
00:08:09.489 : :Chapter 02
00:14:30.869 : :Chapter 03
00:21:58.317 : :Chapter 04
00:28:28.706 : :Chapter 05
00:37:16.234 : :Chapter 06
00:46:02.760 : :Chapter 07
00:53:32.209 : :Chapter 08
01:02:45.762 : :Chapter 09
01:10:58.254 : :Chapter 10
01:17:56.671 : :Chapter 11
01:22:50.966 : :Chapter 12
01:27:55.687 : :Chapter 13

x264 [info]: frame I:733 Avg QP:16.24 size:100108
x264 [info]: frame P:30510 Avg QP:19.08 size: 37082
x264 [info]: frame B:95293 Avg QP:21.09 size: 11590
x264 [info]: consecutive B-frames: 3.0% 3.4% 11.5% 24.6% 16.8% 37.1% 2.5% 0.3% 0.4% 0.2% 0.2%
x264 [info]: mb I I16..4: 7.7% 69.7% 22.6%
x264 [info]: mb P I16..4: 0.2% 11.7% 1.7% P16..4: 30.9% 36.8% 14.5% 2.9% 0.3% skip: 1.2%
x264 [info]: mb B I16..4: 0.0% 1.6% 0.2% B16..8: 36.2% 24.2% 4.0% direct: 5.5% skip:28.3% L0:36.4% L1:46.8% BI:16.9%
x264 [info]: 8x8 transform intra:84.8% inter:55.1%
x264 [info]: direct mvs spatial:99.7% temporal:0.3%
x264 [info]: coded y,uvDC,uvAC intra: 96.9% 0.0% 0.0% inter: 31.6% 0.0% 0.0%
x264 [info]: i16 v,h,dc,p: 9% 17% 13% 62%
x264 [info]: i8 v,h,dc,ddl,ddr,vr,hd,vl,hu: 10% 10% 5% 9% 14% 13% 13% 13% 13%
x264 [info]: i4 v,h,dc,ddl,ddr,vr,hd,vl,hu: 9% 11% 3% 8% 16% 15% 15% 11% 12%
x264 [info]: i8c dc,h,v,p: 70% 30% 0% 0%
x264 [info]: Weighted P-Frames: Y:11.4% UV:0.0%
x264 [info]: ref P L0: 46.2% 15.7% 16.7% 5.1% 4.7% 3.2% 3.4% 1.9% 2.2% 0.6% 0.1%
x264 [info]: ref B L0: 81.9% 9.5% 3.3% 1.8% 1.3% 1.2% 0.7% 0.3%
x264 [info]: ref B L1: 95.2% 4.8%
x264 [info]: kb/s:3500.39



Релиз от: |



   Похожие торренты   Торрент   Размер 
В этой теме нет новых непрочитанных сообщений. Баллада о солдате (1959) BDRip от MediaClub | КПК

13 | 0

394.94 МБ

В этой теме нет новых непрочитанных сообщений. Баллада о солдате (1959) BDRip-AVC от MediaClub

19 | 8

1.75 ГБ

В этой теме нет новых непрочитанных сообщений. Баллада о солдате (1959) BDRip 720p от HQ-ViDEO

37 | 35

5.64 ГБ

В этой теме нет новых непрочитанных сообщений. Баллада о солдате (1959) BDRip от HQCLUB

108 | 21

1.45 ГБ

В этой теме нет новых непрочитанных сообщений. Баллада о солдате (1959) DVDRip

29 | 2

1.46 ГБ

В этой теме нет новых непрочитанных сообщений. Баллада о солдате (1959) DVDRip от Youtracker

27 | 7

744.56 МБ

В этой теме нет новых непрочитанных сообщений. Баллада о солдате (1959) HDRip от Scarabey

248 | 23

1.45 ГБ




Вы не можете начинать темы
Вы не можете отвечать на сообщения
Вы не можете редактировать свои сообщения
Вы не можете удалять свои сообщения
Вы не можете добавлять вложения

Перейти:  
Для Мосгорсуда, Роскомнадзора и рекламодателей: mosgorsud-torrent[собачка]yandex.ru
 Вход
ppkBB3cker v.2 © 2008-2014 @ PPK
[ Time : 0.026s | 15 Queries | GZIP : Off ]

Торрент трекер RUTOR.IN, Не можете зайти на rutor.org? Какой новый адрес рутор? Какое зеркало рутор? Не работает rutor.org и зеркала? Тогда наш торрент специально для вас. Rutor.in неофициальное зеркало rutor. В случае если у Вас заблокирован rutor или вдруг Вы не можете на него зайти, то Вы без труда сможете скачать бесплатно и без рекламы последние новинки кино, игр, сериалов и прочего у нас, на Rutor.in. Не нужно использовать прокси, чтобы зайти на рутор, достаточно воспользоваться нашим ресурсом. Все новые фильмы, игры, сериалы, книги и музыка за 2013 и 2014 годы через торрент бесплатно. Скачивайте фильмы в хорошем качестве, игры для пк, xbox, playstation без регистрации. У нас вы найдете новые Зарубежные сериалы и Русские сериалы 2013, 2014, 2015 годов. Оставайтесь с нами, качайте любимые фильмы, игры, сериалы, книги и музыку.