img image001 image001 image001 image001 image001 image001 image001 image001 image001 image001 image001 image001 image001 image001 image001

Planets Sun Sun Sun
Статистика раздачи
Автор: Nickolas3434 | Размер: 8.12 ГБ | Добавлен: 24 мар 2014
Раздают: 45    Качают: 31
Скачать торрент
Скачать торрент
Описание торрента

СообщениеДобавлено: 24 мар 2014 

Информация о фильме
Название: Человек-амфибия
Год выхода: 1961
Жанр: фантастика, мелодрама
Режиссер: Владимир Чеботарев, Геннадий Казанский
В ролях: Владимир Коренев (Ихтиандр), Анастасия Вертинская (Гуттиэре Бальтазар), Михаил Козаков (Дон Педро), Николай Симонов (Сальватор), Владлен Давыдов (Ольсен), Анатолий Смиранин (старый Бальтазар), А. Антонян, Анатолий Иванов, Валерий Кудряшов, Николай Кузьмин, Михаил Медведев, Юрий Медведев

О фильме:
Однажды талантливый ученый доктор Сальватор спас жизнь маленькому мальчику, пересадив ему жабры акулы. С этого дня Ихтиандр, так назвал своего приемного сына ученый, мог плавать под водой, как рыба, нырять на любую глубину, но ему было тяжело подолгу находиться на суше…
Годы спустя по тихому морскому городу поползли слухи о странном существе, наводящем ужас на всех рыбаков, o «морском дьяволе». В это же самое время в городе появляется молодой человек, который мало общается с людьми и прекрасно плавает. Он знакомится с дочерью бедного ныряльщика за жемчугом, красавицей Гутиэре и без памяти в нее влюбляется…
Страна: СССР
Студия: Ленфильм
Продолжительность: 01:36:21
Перевод: Оригинал

Файл
Кодек: AVC, H264
Качество: BDRip 1080p
Видео: MPEG4, 10.1 Mбит/с, 1488x1080, 23.976 кадр/с
Аудио #1: Русский (DTS, 6 ch, 1510 Кбит/с)
Аудио #2 Русский ( 48.0 KHz, AC-3, 6 ch, 448 Кбит/с)

Complete name : Chelovek-Amfibiya.1961.x264.BDRip.1080p.mkv
Format : Matroska
Format version : Version 2
File size : 8.12 GiB
Duration : 1h 36mn
Overall bit rate : 12.1 Mbps
Movie name : Chelovek-Amfibiya
Encoded date : UTC 2011-08-03 16:57:21
Writing application : mkvmerge v4.5.0 ('Speed of Light') сборка от Feb 1 2011 02:10:32
Writing library : libebml v1.2.0 + libmatroska v1.1.0

Video
ID : 1
Format : AVC
Format/Info : Advanced Video Codec
Format profile : High@L4.1
Format settings, CABAC : Yes
Format settings, ReFrames : 5 frames
Muxing mode : Header stripping
Codec ID : V_MPEG4/ISO/AVC
Duration : 1h 36mn
Bit rate : 10.1 Mbps
Width : 1 488 pixels
Height : 1 080 pixels
Display aspect ratio : 1.378
Frame rate mode : Constant
Frame rate : 23.976 fps
Color space : YUV
Chroma subsampling : 4:2:0
Bit depth : 8 bits
Scan type : Progressive
Bits/(Pixel*Frame) : 0.262
Stream size : 6.64 GiB (82%)
Title : Chelovek-Amfibiya
Writing library : x264 core 92 r1510 33d382a
Encoding settings : cabac=1 / ref=5 / deblock=1:-3:-3 / analyse=0x3:0x133 / me=umh / subme=10 / psy=1 / psy_rd=1.00:0.10 / mixed_ref=1 / me_range=48 / chroma_me=1 / trellis=2 / 8x8dct=1 / cqm=0 / deadzone=21,11 / fast_pskip=0 / chroma_qp_offset=-5 / threads=12 / sliced_threads=0 / nr=0 / decimate=1 / interlaced=0 / constrained_intra=0 / bframes=6 / b_pyramid=2 / b_adapt=2 / b_bias=0 / direct=3 / wpredb=1 / wpredp=2 / keyint=250 / keyint_min=25 / scenecut=40 / intra_refresh=0 / rc_lookahead=60 / rc=2pass / mbtree=1 / bitrate=10108 / ratetol=1.0 / qcomp=0.60 / qpmin=1 / qpmax=51 / qpstep=4 / cplxblur=20.0 / qblur=0.5 / ip_ratio=1.40 / aq=2:0.80
Language : Russian
Default : Yes
Forced : No

Audio #1
ID : 2
Format : DTS
Format/Info : Digital Theater Systems
Mode : 16
Format settings, Endianness : Big
Muxing mode : Header stripping
Codec ID : A_DTS
Duration : 1h 36mn
Bit rate mode : Constant
Bit rate : 1 509 Kbps
Channel(s) : 6 channels
Channel positions : Front: L C R, Side: L R, LFE
Sampling rate : 48.0 KHz
Bit depth : 24 bits
Compression mode : Lossy
Stream size : 1.02 GiB (13%)
Title : DTS
Language : Russian
Default : Yes
Forced : No

Audio #2
ID : 3
Format : AC-3
Format/Info : Audio Coding 3
Mode extension : CM (complete main)
Format settings, Endianness : Big
Muxing mode : Header stripping
Codec ID : A_AC3
Duration : 1h 36mn
Bit rate mode : Constant
Bit rate : 448 Kbps
Channel(s) : 6 channels
Channel positions : Front: L C R, Side: L R, LFE
Sampling rate : 48.0 KHz
Bit depth : 16 bits
Compression mode : Lossy
Stream size : 309 MiB (4%)
Title : AC3
Language : Russian
Default : No
Forced : No





   Похожие торренты   Торрент   Размер 
В этой теме нет новых непрочитанных сообщений. Человек-амфибия (1961) BDRip 1080p от Freeisland

121 | 12

4.37 ГБ

В этой теме нет новых непрочитанных сообщений. Человек-амфибия (1961) BDRip-AVC

10 | 1

749.92 МБ

В этой теме нет новых непрочитанных сообщений. Человек-амфибия (1961) BDRip от HQCLUB

26 | 4

1.79 ГБ

В этой теме нет новых непрочитанных сообщений. Человек-амфибия (1961) BDRip 720p

0 | 4

4.65 ГБ

В этой теме нет новых непрочитанных сообщений. Человек-амфибия (1961) BDRip от HELLYWOOD

650 | 21

1.45 ГБ

В этой теме нет новых непрочитанных сообщений. Человек-амфибия (1961) BDRip-AVC от ExKinoRay

4 | 3

1.37 ГБ

В этой теме нет новых непрочитанных сообщений. Человек-амфибия (1961) BDRip от sergeorg

42 | 3

1.46 ГБ




Вы не можете начинать темы
Вы не можете отвечать на сообщения
Вы не можете редактировать свои сообщения
Вы не можете удалять свои сообщения
Вы не можете добавлять вложения

Перейти:  
Для Мосгорсуда, Роскомнадзора и рекламодателей: mosgorsud-torrent[собачка]yandex.ru
 Вход
ppkBB3cker v.2 © 2008-2014 @ PPK
[ Time : 0.061s | 16 Queries | GZIP : Off ]

cron