img image001 image001 image001 image001 image001 image001 image001 image001 image001 image001 image001 image001 image001 image001 image001

Planets Sun Sun Sun
Статистика раздачи
Автор: Nickolas3434 | Размер: 2.54 ГБ | Добавлен: 25 мар 2014
Раздают: 88    Качают: 15
Скачать торрент
Скачать торрент
Описание торрента

СообщениеДобавлено: 25 мар 2014 

Информация о фильме
Название: Мы, нижеподписавшиеся (2-е серии)
Год выхода: 1980
Жанр: Социальная драма
Режиссер: Татьяна Лиознова
В ролях: Леонид Куравлев , Ирина Муравьева , Юрий Яковлев , Олег Янковский , Аристарх Ливанов , Клара Лучко, Владимир Шихов, Валентина Клягина , Николай Парфенов

О фильме:
Действие фильма разворачивается в поезде, которым возвращается в Москву приемочная комиссия, обнаружившая множество недоделок в новом хлебозаводе и отказавшаяся подписывать акт о его готовности к эксплуатации. Но герой фильма намерен – во что бы то ни стало! – убедить членов комиссии изменить это решение...


Страна: СССР
Студия: ТО Экран
Продолжительность: 1 серия - 01:07:00, 2 серия - 01:11:16
Перевод: Не требуется

Файл
Кодек: XviD
Качество: DVDRip
Видео: 1 серия: 696х528, 2451 Kbps, 25.000 fps / 2 серия: 696х528, 2288 Kbps, 25.000 fps
Звук:
1 серия: AC3 2.0, 256 Kbps
2 серия: AC3 2.0, 256 Kbps

General
Complete name : L:Pshichko66Na zapis'My, nizhepodpisavshiesya1 seriya.avi
Format : AVI
Format/Info : Audio Video Interleave
File size : 1.27 GiB
Duration : 1h 7mn
Overall bit rate : 2 717 Kbps
Writing application : VirtualDubMod 1.5.10.2 (build 2540/release)
Writing library : VirtualDubMod build 2540/release

Video
ID : 0
Format : MPEG-4 Visual
Format profile : Advanced Simple@L5
Format settings, BVOP : 2
Format settings, QPel : No
Format settings, GMC : No warppoints
Format settings, Matrix : Default (MPEG)
Muxing mode : Packed bitstream
Codec ID : XVID
Codec ID/Hint : XviD
Duration : 1h 7mn
Bit rate : 2 451 Kbps
Width : 696 pixels
Height : 528 pixels
Display aspect ratio : 4:3
Frame rate : 25.000 fps
Color space : YUV
Chroma subsampling : 4:2:0
Bit depth : 8 bits
Scan type : Progressive
Compression mode : Lossy
Bits/(Pixel*Frame) : 0.267
Stream size : 1.15 GiB (90%)
Writing library : XviD 64

Audio
ID : 1
Format : AC-3
Format/Info : Audio Coding 3
Mode extension : CM (complete main)
Format settings, Endianness : Big
Codec ID : 2000
Duration : 1h 7mn
Bit rate mode : Constant
Bit rate : 256 Kbps
Channel count : 2 channels
Channel positions : Front: L R
Sampling rate : 48.0 KHz
Bit depth : 16 bits
Compression mode : Lossy
Stream size : 123 MiB (9%)
Alignment : Split accross interleaves
Interleave, duration : 40 ms (1.00 video frame)
Interleave, preload duration : 500 ms
General
Complete name : L:Pshichko66Na zapis'My, nizhepodpisavshiesya2 seriya.avi
Format : AVI
Format/Info : Audio Video Interleave
File size : 1.27 GiB
Duration : 1h 11mn
Overall bit rate : 2 554 Kbps
Writing application : VirtualDubMod 1.5.10.2 (build 2540/release)
Writing library : VirtualDubMod build 2540/release

Video
ID : 0
Format : MPEG-4 Visual
Format profile : Advanced Simple@L5
Format settings, BVOP : 2
Format settings, QPel : No
Format settings, GMC : No warppoints
Format settings, Matrix : Default (MPEG)
Muxing mode : Packed bitstream
Codec ID : XVID
Codec ID/Hint : XviD
Duration : 1h 11mn
Bit rate : 2 288 Kbps
Width : 696 pixels
Height : 528 pixels
Display aspect ratio : 4:3
Frame rate : 25.000 fps
Color space : YUV
Chroma subsampling : 4:2:0
Bit depth : 8 bits
Scan type : Progressive
Compression mode : Lossy
Bits/(Pixel*Frame) : 0.249
Stream size : 1.14 GiB (90%)
Writing library : XviD 64

Audio
ID : 1
Format : AC-3
Format/Info : Audio Coding 3
Mode extension : CM (complete main)
Format settings, Endianness : Big
Codec ID : 2000
Duration : 1h 11mn
Bit rate mode : Constant
Bit rate : 256 Kbps
Channel count : 2 channels
Channel positions : Front: L R
Sampling rate : 48.0 KHz
Bit depth : 16 bits
Compression mode : Lossy
Stream size : 130 MiB (10%)
Alignment : Split accross interleaves
Interleave, duration : 40 ms (1.00 video frame)
Interleave, preload duration : 500 ms


Релиз от: Pshichko66



   Похожие торренты   Торрент   Размер 
В этой теме нет новых непрочитанных сообщений. 30 случаев майора Земана / 30 prípadu majora Zemana [30 из 30] (1976-1980) DVDRip от Pshichko66

106 | 65

27.28 ГБ

В этой теме нет новых непрочитанных сообщений. Амнистия (Троянский конь) (1980) SATRip от Pshichko66

215 | 16

1.78 ГБ

В этой теме нет новых непрочитанных сообщений. Мы, нижеподписавшиеся (1981) SATRip

48 | 8

747.76 МБ

В этой теме нет новых непрочитанных сообщений. Мы, нижеподписавшиеся (1981) SATRip от MediaClub

30 | 13

1.45 ГБ

В этой теме нет новых непрочитанных сообщений. Мы, нижеподписавшиеся (1981) SATRip от MediaClub

28 | 4

2.18 ГБ

В этой теме нет новых непрочитанных сообщений. Мы, нижеподписавшиеся (1981) SATRip-AVC от ExKinoRay

93 | 18

2.46 ГБ

В этой теме нет новых непрочитанных сообщений. Мелодии и ритмы зарубежной эстрады. Toto Cutugno / Toto Cutugno (1980) IPTVRip от Pshichko66

110 | 6

951.2 МБ




Вы не можете начинать темы
Вы не можете отвечать на сообщения
Вы не можете редактировать свои сообщения
Вы не можете удалять свои сообщения
Вы не можете добавлять вложения

Перейти:  
Для Мосгорсуда, Роскомнадзора и рекламодателей: mosgorsud-torrent[собачка]yandex.ru
 Вход
ppkBB3cker v.2 © 2008-2014 @ PPK
[ Time : 0.029s | 17 Queries | GZIP : Off ]

Торрент трекер RUTOR.IN, Не можете зайти на rutor.org? Какой новый адрес рутор? Какое зеркало рутор? Не работает rutor.org и зеркала? Тогда наш торрент специально для вас. Rutor.in неофициальное зеркало rutor. В случае если у Вас заблокирован rutor или вдруг Вы не можете на него зайти, то Вы без труда сможете скачать бесплатно и без рекламы последние новинки кино, игр, сериалов и прочего у нас, на Rutor.in. Не нужно использовать прокси, чтобы зайти на рутор, достаточно воспользоваться нашим ресурсом. Все новые фильмы, игры, сериалы, книги и музыка за 2013 и 2014 годы через торрент бесплатно. Скачивайте фильмы в хорошем качестве, игры для пк, xbox, playstation без регистрации. У нас вы найдете новые Зарубежные сериалы и Русские сериалы 2013, 2014, 2015 годов. Оставайтесь с нами, качайте любимые фильмы, игры, сериалы, книги и музыку.