img image001 image001 image001 image001 image001 image001 image001 image001 image001 image001 image001 image001 image001 image001 image001

Planets Sun Sun Sun
Статистика раздачи
Автор: Nickolas3434 | Размер: 1.46 ГБ | Добавлен: 25 мар 2014, 05:06
Раздают: 65    Качают: 32
Скачать торрент
Скачать торрент
Описание торрента

СообщениеДобавлено: 25 мар 2014, 05:06 

Информация о фильме
Название: Охота на сутенера
Оригинальное название: Оригинальное название (для иностранных фильмов)
Год выхода: 1990
Жанр: Криминал, драма
Режиссер: Вадим Дербенев
В ролях: Александр Гловяк, Клавдия Козленкова, Татьяна Догилева, Аристарх Ливанов, Борис Новиков, Андрей Соколов, Игорь Волков, Ян Левинзон, Сергей Векслер, Игорь Верник, Вера Сотникова, Екатерина Кмит, Владимир Тальков, Павел Сиротин

О фильме:
Двое приятелей Вова и Боб ограбили квартиру Нины - любовницы директора рынка. Всю вину молодчики свалили на бывшего любовника и сутенера Нины Стаса Шапкина. Шеф не стал впутывать в эту историю милицию, он поручил заняться этим делом своим людям. Бандиты пытают Стаса, требуют отдать пропавшую сумму. В конце концов, бедняге приходится занять деньги у всех своих проституток и отдать вымогателям.

Официальный сайт

Страна: СССР
Студия: Студия "Латерна Магика"
Продолжительность: 01:28:24
Перевод: Не требуется

Файл
Кодек: XviD
Качество: DVDRip
Видео: 696х528, 2123 Kbps, 25.000 fps
Звук: AC3 2.0, 224 Kbps
Субтитры: Языки и типы субтитров

Семпл


General
Complete name : L:Pshichko66Na zapis'Ohota na sutenera.avi
Format : AVI
Format/Info : Audio Video Interleave
File size : 1.46 GiB
Duration : 1h 28mn
Overall bit rate : 2 357 Kbps
Writing application : VirtualDubMod 1.5.10.2 (build 2540/release)
Writing library : VirtualDubMod build 2540/release

Video
ID : 0
Format : MPEG-4 Visual
Format profile : Advanced Simple@L5
Format settings, BVOP : 2
Format settings, QPel : No
Format settings, GMC : No warppoints
Format settings, Matrix : Default (MPEG)
Muxing mode : Packed bitstream
Codec ID : XVID
Codec ID/Hint : XviD
Duration : 1h 28mn
Bit rate : 2 123 Kbps
Width : 696 pixels
Height : 528 pixels
Display aspect ratio : 4:3
Frame rate : 25.000 fps
Color space : YUV
Chroma subsampling : 4:2:0
Bit depth : 8 bits
Scan type : Progressive
Compression mode : Lossy
Bits/(Pixel*Frame) : 0.231
Stream size : 1.31 GiB (90%)
Writing library : XviD 64

Audio
ID : 1
Format : AC-3
Format/Info : Audio Coding 3
Mode extension : CM (complete main)
Format settings, Endianness : Big
Codec ID : 2000
Duration : 1h 28mn
Bit rate mode : Constant
Bit rate : 224 Kbps
Channel count : 2 channels
Channel positions : Front: L R
Sampling rate : 48.0 KHz
Bit depth : 16 bits
Compression mode : Lossy
Stream size : 142 MiB (10%)
Alignment : Split accross interleaves
Interleave, duration : 40 ms (1.00 video frame)
Interleave, preload duration : 500 ms

Релиз от: Pshichko66



   Похожие торренты   Торрент   Размер 
В этой теме нет новых непрочитанных сообщений. Охота на сутенера (1990) DVDRip

24 | 13

1.37 ГБ

В этой теме нет новых непрочитанных сообщений. Царская охота (1990) DVDRip

95 | 6

2.05 ГБ

В этой теме нет новых непрочитанных сообщений. Царская охота (1990) DVDRip от New-Team

6 | 5

2.19 ГБ

В этой теме нет новых непрочитанных сообщений. Царская охота (1990) DVDRip от New-Team

50 | 10

1.46 ГБ

В этой теме нет новых непрочитанных сообщений. Царская охота (1990) DVDRip-AVC от New-Team

39 | 5

2.19 ГБ

В этой теме нет новых непрочитанных сообщений. Охота за "Красным Октябрем" / The Hunt for Red October (1990) DVDRip

0 | 4

2.03 ГБ

В этой теме нет новых непрочитанных сообщений. Гибель Гайдара. Легенда о Красном Всаднике (2008) SATRip от Psichko66

94 | 21

701.55 МБ




Вы не можете начинать темы
Вы не можете отвечать на сообщения
Вы не можете редактировать свои сообщения
Вы не можете удалять свои сообщения
Вы не можете добавлять вложения

Перейти:  
Для Мосгорсуда, Роскомнадзора и рекламодателей: mosgorsud-torrent[собачка]yandex.ru
Настройки
ppkBB3cker v.2 © 2008-2014 @ PPK
[ Time : 0.021s | 18 Queries | GZIP : Off ]
CGP [Extreme] output time : 0.00013s | 0 Queries | GZIP : Off

Торрент трекер RUTOR.IN, Не можете зайти на rutor.org? Какой новый адрес рутор? Какое зеркало рутор? Не работает rutor.org и зеркала? Тогда наш торрент специально для вас. Rutor.in неофициальное зеркало rutor. В случае если у Вас заблокирован rutor или вдруг Вы не можете на него зайти, то Вы без труда сможете скачать бесплатно и без рекламы последние новинки кино, игр, сериалов и прочего у нас, на Rutor.in. Не нужно использовать прокси, чтобы зайти на рутор, достаточно воспользоваться нашим ресурсом. Все новые фильмы, игры, сериалы, книги и музыка за 2013 и 2014 годы через торрент бесплатно. Скачивайте фильмы в хорошем качестве, игры для пк, xbox, playstation без регистрации. У нас вы найдете новые Зарубежные сериалы и Русские сериалы 2013, 2014, 2015 годов. Оставайтесь с нами, качайте любимые фильмы, игры, сериалы, книги и музыку.