img image001 image001 image001 image001 image001 image001 image001 image001 image001 image001 image001 image001 image001 image001 image001

Planets Sun Sun Sun
Статистика раздачи
Автор: Nickolas3434 | Размер: 1.46 ГБ | Добавлен: 25 мар 2014
Раздают: 32    Качают: 46
Скачать торрент
Скачать торрент
Описание торрента

СообщениеДобавлено: 25 мар 2014 

Страна: СССР
Производство: Гостелерадио, Мосфильм

Жанр: мелодрама, комедия
Год выпуска: 1988
Продолжительность: 02:12:50 (01:07:30 + 01:05:20)

Перевод: не требуется
Оригинальная аудиодорожка: русский
Cубтитры: нет

Режиссер: Леонид Квинихидзе

В ролях:
Ирина Муравьева, Сергей Шакуров, Михаил Пуговкин, Михаил Филиппов, Валентин Смирнитский, Елена Соловей, Александр Панкратов-Черный, Марина Стриженова, Надежда Евдокимова, Людмила Гаврилова, Михаил Кокшенов, Игорь Ясулович, Алексей Жарков, Наталья Крачковская...

Описание:
История киноактрисы, приехавшей в столицу из сельской глубинки. Успешно начавшись, ее карьера в дальнейшем не складывается, талант оказывается невостребованным. К профессиональным неудачам добавляются проблемы в личной жизни -и героиня решает «сжечь мосты», вернуться в родные края. Впрочем, она остается обаятельной и: жизнерадостной, не теряет оптимизма, а главное не изменяет своему призванию. И ей воздается по достоинству…





Исходник: DVD9 R5
Тип релиза: DVDRip
Контейнер: AVI

Видео: 688x512 (4:3), 25 fps, XviD ~ 1367 kbps avg, 0.155 bit/pixel
Аудио: 48 kHz, Dolby AC3 2.0, 192 kbps

Раздача от:
Общее
Полное имя : Artistka.iz.Gribova.1988.DVDRip_[New-team]_by_AVP_Studio\01.avi
Формат : AVI
Формат/Информация : Audio Video Interleave
Размер файла : 757 Мбайт
Продолжительность : 1 ч. 7 м.
Общий поток : 1568 Кбит/сек
Программа кодирования : VirtualDubModRus 1.5.10.2 (build 2542/release)
Библиотека кодирования : VirtualDubMod build 2542/release

Видео
Идентификатор : 0
Формат : MPEG-4 Visual
Профиль формата : Advanced Simple@L5
Параметр BVOP формата : 1
Параметр QPel формата : Нет
Параметр GMC формата : Без точки перехода
Параметр матрицы формата : Выборочная
Идентификатор кодека : XVID
Идентификатор кодека/Подсказка : XviD
Продолжительность : 1 ч. 7 м.
Битрейт : 1367 Кбит/сек
Ширина : 688 пикселей
Высота : 512 пикселей
Соотношение сторон : 4:3
Частота кадров : 25,000 кадров/сек
Цветовое пространство : YUV
Субдискретизация насыщенности : 4:2:0
Битовая глубина : 8 бит
Тип развёртки : Прогрессивная
Метод сжатия : С потерями
Бит/(Пиксели*Кадры) : 0.155
Размер потока : 660 Мбайт (87%)
Библиотека кодирования : XviD 73

Аудио
Идентификатор : 1
Формат : AC-3
Формат/Информация : Audio Coding 3
Расширение режима : CM (complete main)
Параметр Endianness формата : Big
Идентификатор кодека : 2000
Продолжительность : 1 ч. 7 м.
Вид битрейта : Постоянный
Битрейт : 192 Кбит/сек
Каналы : 2 канала
Расположение каналов : Front: L R
Частота : 48,0 КГц
Битовая глубина : 16 бит
Метод сжатия : С потерями
Размер потока : 92,7 Мбайт (12%)
Выравнивание : Разделение по промежуткам
Продолжительность промежутка : 40 мс. (1,00 видеокадр)
Время предзагрузки промежутка : 500 мс





   Похожие торренты   Торрент   Размер 
В этой теме нет новых непрочитанных сообщений. Артистка из Грибова (1988) DVDRip-AVC от New-Team

207 | 11

1.45 ГБ

В этой теме нет новых непрочитанных сообщений. Артистка из Грибова (1988) DVDRip от DVDRip - KinoZalSat-СССР

9 | 5

2.04 ГБ

В этой теме нет новых непрочитанных сообщений. Артистка (2007) DVDRip

86 | 23

1.37 ГБ

В этой теме нет новых непрочитанных сообщений. Артистка (2007) DVDRip от Alekxandr48

71 | 11

701.47 МБ

В этой теме нет новых непрочитанных сообщений. Игла (1988) DVDRip от New-Team

99 | 8

741.86 МБ

В этой теме нет новых непрочитанных сообщений. Игла (1988) DVDRip от New-Team

262 | 29

1.45 ГБ

В этой теме нет новых непрочитанных сообщений. Убить дракона (1988) DVDRip от New-Team

203 | 12

1.46 ГБ




Вы не можете начинать темы
Вы не можете отвечать на сообщения
Вы не можете редактировать свои сообщения
Вы не можете удалять свои сообщения
Вы не можете добавлять вложения

Перейти:  
Для Мосгорсуда, Роскомнадзора и рекламодателей: mosgorsud-torrent[собачка]yandex.ru
 Вход
ppkBB3cker v.2 © 2008-2014 @ PPK
[ Time : 0.057s | 15 Queries | GZIP : Off ]

Торрент трекер RUTOR.IN, Не можете зайти на rutor.org? Какой новый адрес рутор? Какое зеркало рутор? Не работает rutor.org и зеркала? Тогда наш торрент специально для вас. Rutor.in неофициальное зеркало rutor. В случае если у Вас заблокирован rutor или вдруг Вы не можете на него зайти, то Вы без труда сможете скачать бесплатно и без рекламы последние новинки кино, игр, сериалов и прочего у нас, на Rutor.in. Не нужно использовать прокси, чтобы зайти на рутор, достаточно воспользоваться нашим ресурсом. Все новые фильмы, игры, сериалы, книги и музыка за 2013 и 2014 годы через торрент бесплатно. Скачивайте фильмы в хорошем качестве, игры для пк, xbox, playstation без регистрации. У нас вы найдете новые Зарубежные сериалы и Русские сериалы 2013, 2014, 2015 годов. Оставайтесь с нами, качайте любимые фильмы, игры, сериалы, книги и музыку.