img image001 image001 image001 image001 image001 image001 image001 image001 image001 image001 image001 image001 image001 image001 image001

Planets Sun Sun Sun
Статистика раздачи
Автор: Nickolas3434 | Размер: 1.46 ГБ | Добавлен: 25 мар 2014
Раздают: 155    Качают: 52
Скачать торрент
Скачать торрент
Описание торрента

СообщениеДобавлено: 25 мар 2014 

«Здесь происходит необъяснимое»




Страна: Россия / Мастерская Павла Лунгина
Жанр: драма
Год выпуска: 2006
Продолжительность: 01:49:46

Перевод: Не требуется
Cубтитры: русский, английский, украинский
Оригинальная аудиодорожка: русский

Режиссер: Павел Лунгин

В ролях: Петр Мамонов, Виктор Сухоруков, Дмитрий Дюжев, Юрий Кузнецов, Виктория Исакова, Нина Усатова, Яна Есипович, Ольга Демидова, Тимофей Трибунцев, Алексей Зеленский...

Описание: Вторая мировая война. Баржу, на которой Анатолий и его старший товарищ Тихон перевозят уголь, захватывает немецкий сторожевой корабль. Вымаливая пощаду у немцев, Анатолий совершает предательство — расстреливает Тихона. Немцы оставляют труса на заминированной барже, но благодаря помощи монахов, проживающих в монастыре на острове, ему удается выжить.
Проходят годы. Старца Анатолия почитают за праведную жизнь и поистине чудесную помощь, которую он оказывает приехавшим сюда людям. Однако страшный грех убийства, совершенный им во время войны, не дает ему покоя. Чувствуя приближение своей кончины, Анатолий готовится к смерти и пока не знает, что скоро будет прощен…



Качество: DVDRip / DVD9 R5
Формат: AVI

Видео: 720x304 (2.35:1), 25.000 fps, XviD ~ 1443 kbps avg, 0.264 bit/pixel
Аудио: 48 kHz, Dolby AC3, 6 ch, 448 kbps, русский
Формат субтиров: SoftSub (srt)

Дополнительно: Предвижу вопрос, почему не выбрал исходником Blu-ray диск? Дело в том, что тот диск нельзя назвать по настоящему диском Blu-ray качества. Издатели диска просто сделали апскейл, при этом уменьшили яркость DVD диска и повысили четкость за счет искусственных приемов. Позже приведу сравнение с BDRip-ом, изготовленным из означенного Blu-ray.

Раздача от:
Общее
Полное имя : Ostrov.2006.O.DVDRip_[New-Team]_by_avproh.avi
Формат : AVI
Формат/Информация : Audio Video Interleave
Размер файла : 1,46 Гбайт
Продолжительность : 1 ч. 49 м.
Общий поток : 1901 Кбит/сек
Программа кодирования : VirtualDubMod 1.5.10.3 | www.virtualdub-fr.org || (build 2550/release)
Библиотека кодирования : VirtualDubMod build 2550/release

Видео
Идентификатор : 0
Формат : MPEG-4 Visual
Профиль формата : Advanced Simple@L5
Параметр BVOP формата : 1
Параметр QPel формата : Нет
Параметр GMC формата : Без точки перехода
Параметр матрицы формата : Выборочная
Идентификатор кодека : XVID
Идентификатор кодека/Подсказка : XviD
Продолжительность : 1 ч. 49 м.
Битрейт : 1443 Кбит/сек
Ширина : 720 пикселей
Высота : 304 пикселя
Соотношение сторон : 2,35:1
Частота кадров : 25,000 кадров/сек
Цветовое пространство : YUV
Субдискретизация насыщенности : 4:2:0
Битовая глубина : 8 бит
Тип развёртки : Прогрессивная
Метод сжатия : С потерями
Бит/(Пиксели*Кадры) : 0.264
Размер потока : 1,11 Гбайт (76%)
Библиотека кодирования : XviD 73

Аудио
Идентификатор : 1
Формат : AC-3
Формат/Информация : Audio Coding 3
Расширение режима : CM (complete main)
Параметр Endianness формата : Big
Идентификатор кодека : 2000
Продолжительность : 1 ч. 49 м.
Вид битрейта : Постоянный
Битрейт : 448 Кбит/сек
Каналы : 6 каналов
Расположение каналов : Front: L C R, Side: L R, LFE
Частота : 48,0 КГц
Битовая глубина : 16 бит
Метод сжатия : С потерями
Размер потока : 352 Мбайт (24%)
Выравнивание : Разделение по промежуткам
Продолжительность промежутка : 40 мс. (1,00 видеокадр)
Время предзагрузки промежутка : 500 мс.






   Похожие торренты   Торрент   Размер 
В этой теме нет новых непрочитанных сообщений. Остров (2006) DVDRip от New-Team

220 | 19

2.19 ГБ

В этой теме нет новых непрочитанных сообщений. Остров (2006) DVDRip-AVC от New-Team

736 | 34

1.45 ГБ

В этой теме нет новых непрочитанных сообщений. Остров (2006) DVDRip

45 | 3

1.46 ГБ

В этой теме нет новых непрочитанных сообщений. Остров (2006) DVDRip-AVC

109 | 10

1.36 ГБ

В этой теме нет новых непрочитанных сообщений. Остров (2006) DVDRip | КПК от Generalfilm

5 | 2

432.42 МБ

В этой теме нет новых непрочитанных сообщений. Остров (2006) DVDRip от MediaClub | КПК

86 | 6

495.33 МБ

В этой теме нет новых непрочитанных сообщений. Таинственный остров (1941) DVDRip от New-Team

41 | 16

1.46 ГБ




Вы не можете начинать темы
Вы не можете отвечать на сообщения
Вы не можете редактировать свои сообщения
Вы не можете удалять свои сообщения
Вы не можете добавлять вложения

Перейти:  
Для Мосгорсуда, Роскомнадзора и рекламодателей: mosgorsud-torrent[собачка]yandex.ru
 Вход
ppkBB3cker v.2 © 2008-2014 @ PPK
[ Time : 1.413s | 15 Queries | GZIP : Off ]

Торрент трекер RUTOR.IN, Не можете зайти на rutor.org? Какой новый адрес рутор? Какое зеркало рутор? Не работает rutor.org и зеркала? Тогда наш торрент специально для вас. Rutor.in неофициальное зеркало rutor. В случае если у Вас заблокирован rutor или вдруг Вы не можете на него зайти, то Вы без труда сможете скачать бесплатно и без рекламы последние новинки кино, игр, сериалов и прочего у нас, на Rutor.in. Не нужно использовать прокси, чтобы зайти на рутор, достаточно воспользоваться нашим ресурсом. Все новые фильмы, игры, сериалы, книги и музыка за 2013 и 2014 годы через торрент бесплатно. Скачивайте фильмы в хорошем качестве, игры для пк, xbox, playstation без регистрации. У нас вы найдете новые Зарубежные сериалы и Русские сериалы 2013, 2014, 2015 годов. Оставайтесь с нами, качайте любимые фильмы, игры, сериалы, книги и музыку.