img image001 image001 image001 image001 image001 image001 image001 image001 image001 image001 image001 image001 image001 image001 image001

Planets Sun Sun Sun
Статистика раздачи
Автор: Nickolas3434 | Размер: 1.45 ГБ | Добавлен: 27 мар 2014
Раздают: 208    Качают: 11
Скачать торрент
Скачать торрент
Описание торрента

СообщениеДобавлено: 27 мар 2014 

Страна: СССР
Производство: Гостелерадио, Мосфильм

Жанр: мелодрама, комедия
Год выпуска: 1988
Продолжительность: 02:12:50 (01:07:30 + 01:05:20)

Перевод: не требуется
Оригинальная аудиодорожка: русский
Cубтитры: нет

Режиссер: Леонид Квинихидзе

В ролях:
Ирина Муравьева, Сергей Шакуров, Михаил Пуговкин, Михаил Филиппов, Валентин Смирнитский, Елена Соловей, Александр Панкратов-Черный, Марина Стриженова, Надежда Евдокимова, Людмила Гаврилова, Михаил Кокшенов, Игорь Ясулович, Алексей Жарков, Наталья Крачковская...

Описание:
История киноактрисы, приехавшей в столицу из сельской глубинки. Успешно начавшись, ее карьера в дальнейшем не складывается, талант оказывается невостребованным. К профессиональным неудачам добавляются проблемы в личной жизни -и героиня решает «сжечь мосты», вернуться в родные края. Впрочем, она остается обаятельной и: жизнерадостной, не теряет оптимизма, а главное не изменяет своему призванию. И ей воздается по достоинству…





Исходник: DVD9 R5
Тип релиза: DVDRip-AVC
Контейнер: MKV

Видео: 688->736x556 (1.324:1), 25 fps, H264 ~ 1374 kbps avg, 0.144 bit/pixel
Аудио: 48 kHz, Dolby AC3 2.0, 192 kbps

Раздача от:
Общее
Полное имя : Artistka.iz.Gribova.1988.DVDRip-AVC_[New-team]_by_AVP_Studio1.mkv
Формат : Matroska
Версия формата : Version 2
Размер файла : 757 Мбайт
Продолжительность : 1 ч. 7 м.
Общий поток : 1567 Кбит/сек
Дата кодирования : UTC 2014-03-24 16:51:29
Программа кодирования : mkvmerge v6.1.0 ('Old Devil') built on Mar 4 2013 09:10:42
Библиотека кодирования : libebml v1.3.0 + libmatroska v1.4.0

Видео
Идентификатор : 1
Формат : AVC
Формат/Информация : Advanced Video Codec
Профиль формата : High@L4.1
Параметр CABAC формата : Да
Параметр ReFrames формата : 8 кадров
Идентификатор кодека : V_MPEG4/ISO/AVC
Продолжительность : 1 ч. 7 м.
Битрейт : 1374 Кбит/сек
Ширина : 688 пикселей
Высота : 556 пикселей
Соотношение сторон : 4:3
Режим частоты кадров : Постоянный
Частота кадров : 25,000 кадров/сек
Цветовое пространство : YUV
Субдискретизация насыщенности : 4:2:0
Битовая глубина : 8 бит
Тип развёртки : Прогрессивная
Бит/(Пиксели*Кадры) : 0.144
Размер потока : 649 Мбайт (86%)
Библиотека кодирования : x264 core 138 r2356 a1d3d17
Настройки программы : cabac=1 / ref=8 / deblock=1:-2:-1 / analyse=0x3:0x113 / me=umh / subme=10 / psy=1 / psy_rd=1.00:0.05 / mixed_ref=1 / me_range=32 / chroma_me=1 / trellis=2 / 8x8dct=1 / cqm=0 / deadzone=21,11 / fast_pskip=0 / chroma_qp_offset=-3 / threads=3 / lookahead_threads=1 / sliced_threads=0 / nr=0 / decimate=0 / interlaced=0 / bluray_compat=0 / constrained_intra=0 / bframes=8 / b_pyramid=2 / b_adapt=2 / b_bias=0 / direct=3 / weightb=1 / open_gop=0 / weightp=2 / keyint=250 / keyint_min=25 / scenecut=40 / intra_refresh=0 / rc=2pass / mbtree=0 / bitrate=1374 / ratetol=1.0 / qcomp=0.60 / qpmin=0 / qpmax=69 / qpstep=4 / cplxblur=20.0 / qblur=0.5 / ip_ratio=1.40 / pb_ratio=1.30 / aq=1:1.00
Default : Да
Forced : Нет

Аудио
Идентификатор : 2
Формат : AC-3
Формат/Информация : Audio Coding 3
Расширение режима : CM (complete main)
Параметр Endianness формата : Big
Идентификатор кодека : A_AC3
Продолжительность : 1 ч. 7 м.
Вид битрейта : Постоянный
Битрейт : 192 Кбит/сек
Каналы : 2 канала
Расположение каналов : Front: L R
Частота : 48,0 КГц
Битовая глубина : 16 бит
Метод сжатия : С потерями
Размер потока : 92,7 Мбайт (12%)
Default : Да
Forced : Нет





   Похожие торренты   Торрент   Размер 
В этой теме нет новых непрочитанных сообщений. Артистка из Грибова (1988) DVDRip от New-Team

32 | 46

1.46 ГБ

В этой теме нет новых непрочитанных сообщений. Артистка из Грибова (1988) DVDRip от DVDRip - KinoZalSat-СССР

9 | 5

2.04 ГБ

В этой теме нет новых непрочитанных сообщений. Артистка (2007) DVDRip

86 | 23

1.37 ГБ

В этой теме нет новых непрочитанных сообщений. Артистка (2007) DVDRip от Alekxandr48

71 | 11

701.47 МБ

В этой теме нет новых непрочитанных сообщений. Игла (1988) DVDRip от New-Team

262 | 29

1.45 ГБ

В этой теме нет новых непрочитанных сообщений. Игла (1988) DVDRip от New-Team

99 | 8

741.86 МБ

В этой теме нет новых непрочитанных сообщений. Убить дракона (1988) DVDRip от New-Team

203 | 12

1.46 ГБ




Вы не можете начинать темы
Вы не можете отвечать на сообщения
Вы не можете редактировать свои сообщения
Вы не можете удалять свои сообщения
Вы не можете добавлять вложения

Перейти:  
Для Мосгорсуда, Роскомнадзора и рекламодателей: mosgorsud-torrent[собачка]yandex.ru
 Вход
ppkBB3cker v.2 © 2008-2014 @ PPK
[ Time : 0.026s | 14 Queries | GZIP : Off ]
CGP output time : 0.029s | 5 Queries | GZIP : Off

Торрент трекер RUTOR.IN, Не можете зайти на rutor.org? Какой новый адрес рутор? Какое зеркало рутор? Не работает rutor.org и зеркала? Тогда наш торрент специально для вас. Rutor.in неофициальное зеркало rutor. В случае если у Вас заблокирован rutor или вдруг Вы не можете на него зайти, то Вы без труда сможете скачать бесплатно и без рекламы последние новинки кино, игр, сериалов и прочего у нас, на Rutor.in. Не нужно использовать прокси, чтобы зайти на рутор, достаточно воспользоваться нашим ресурсом. Все новые фильмы, игры, сериалы, книги и музыка за 2013 и 2014 годы через торрент бесплатно. Скачивайте фильмы в хорошем качестве, игры для пк, xbox, playstation без регистрации. У нас вы найдете новые Зарубежные сериалы и Русские сериалы 2013, 2014, 2015 годов. Оставайтесь с нами, качайте любимые фильмы, игры, сериалы, книги и музыку.