img image001 image001 image001 image001 image001 image001 image001 image001 image001 image001 image001 image001 image001 image001 image001

Planets Sun Sun Sun
Статистика раздачи
Автор: Nickolas3434 | Размер: 5.76 ГБ | Добавлен: 26 мар 2014
Раздают: 604    Качают: 73
Скачать торрент
Скачать торрент
Описание торрента

СообщениеДобавлено: 26 мар 2014 

Информация о фильме
Название: Белое солнце пустыни
Год выхода: 1969
Жанр: боевик, драма, мелодрама, комедия, приключения, военный
Режиссер: Владимир Мотыль
В ролях: Анатолий Кузнецов, Спартак Мишулин, Кахи Кавсадзе, Павел Луспекаев, Раиса Куркина, Татьяна Федотова, Николай Годовиков, Муса Дудаев, Николай Бадьев, Владимир Кадочников

О фильме: Бесконечная пустыня, боец Сухов, прикуривающий с динамитной шашки, нескладный Петруха с вечно заклинивающей трехлинейкой, обаятельный Верещагин, с надоевшей черной икрой и знаменитыми песнями-балладами, ловкий Саид с незабвенным «Стреляли», злодей Абдулла со своей бандой, любознательная Гульчатай, играющая с черепахою…



Выпущено: Мосфильм
Продолжительность: 01:23:32
Перевод: Оригинал (лицензия)

Файл
Кодек: x264
Качество: BDRip (источник: Blu-ray Disc)
Видео: 1480x1080 (4:3), 23.976 fps, 9420 kbps
Аудио: AC-3, 6 ch, 448 kbps
Субтитры: Русские
Скачать: сэмпл

Скриншоты

Общее
Уникальный идентификатор : 199059947372701678805222664195317951050 (0x95C18D24715CD39D91FE065CA053EA4A)
Полное имя : Beloe.solntse.pustyni.1969.BDRip.1080p.Rus.mkv
Формат : Matroska
Версия формата : Version 2
Размер файла : 5,76 Гбайт
Продолжительность : 1 ч. 23 м.
Общий поток : 9870 Кбит/сек
Название фильма : Белое солнце пустыни (1969)
Дата кодирования : UTC 2014-03-25 16:19:08
Программа кодирования : mkvmerge v5.8.0 ('No Sleep / Pillow') built on Sep 2 2012 15:37:04
Библиотека кодирования : libebml v1.2.3 + libmatroska v1.3.0

Видео
Идентификатор : 1
Формат : AVC
Формат/Информация : Advanced Video Codec
Профиль формата : High@L4.1
Параметр CABAC формата : Да
Параметр ReFrames формата : 5 кадров
Идентификатор кодека : V_MPEG4/ISO/AVC
Продолжительность : 1 ч. 23 м.
Битрейт : 9420 Кбит/сек
Ширина : 1480 пикселей
Высота : 1080 пикселей
Соотношение сторон : 1,370
Режим частоты кадров : Постоянный
Частота кадров : 23,976 кадра/сек
Цветовое пространство : YUV
Субдискретизация насыщенности : 4:2:0
Битовая глубина : 8 бит
Тип развёртки : Прогрессивная
Бит/(Пиксели*Кадры) : 0.246
Размер потока : 5,38 Гбайт (93%)
Заголовок : Release by AlexKa
Библиотека кодирования : x264 core 142 r2409 d6b4e63
Настройки программы : cabac=1 / ref=5 / deblock=1:-3:-3 / analyse=0x3:0x133 / me=umh / subme=11 / psy=1 / psy_rd=1.00:0.00 / mixed_ref=1 / me_range=32 / chroma_me=1 / trellis=2 / 8x8dct=1 / cqm=0 / deadzone=21,11 / fast_pskip=0 / chroma_qp_offset=-2 / threads=12 / lookahead_threads=2 / sliced_threads=0 / nr=0 / decimate=1 / interlaced=0 / bluray_compat=0 / constrained_intra=0 / bframes=8 / b_pyramid=2 / b_adapt=2 / b_bias=0 / direct=3 / weightb=1 / open_gop=0 / weightp=2 / keyint=240 / keyint_min=23 / scenecut=40 / intra_refresh=0 / rc=2pass / mbtree=0 / bitrate=9420 / ratetol=1.0 / qcomp=0.60 / qpmin=0 / qpmax=69 / qpstep=4 / cplxblur=20.0 / qblur=0.5 / ip_ratio=1.40 / pb_ratio=1.30 / aq=1:1.00
Язык : Russian

Аудио
Идентификатор : 2
Формат : AC-3
Формат/Информация : Audio Coding 3
Расширение режима : CM (complete main)
Параметр Endianness формата : Big
Идентификатор кодека : A_AC3
Продолжительность : 1 ч. 23 м.
Вид битрейта : Постоянный
Битрейт : 448 Кбит/сек
Каналы : 6 каналов
Расположение каналов : Front: L C R, Side: L R, LFE
Частота : 48,0 КГц
Битовая глубина : 16 бит
Метод сжатия : С потерями
Размер потока : 268 Мбайт (5%)
Заголовок : Rus
Язык : Russian

Текст
Идентификатор : 3
Формат : UTF-8
Идентификатор кодека : S_TEXT/UTF8
Идентификатор кодека/Информация : UTF-8 Plain Text
Заголовок : Rus
Язык : Russian

Меню
00:00:00.000 : :Chapter 01
00:07:01.879 : :Chapter 02
00:15:34.099 : :Chapter 03
00:24:16.705 : :Chapter 04
00:32:32.700 : :Chapter 05
00:41:02.710 : :Chapter 06
00:44:27.539 : :Chapter 07
00:50:30.569 : :Chapter 08
00:55:03.216 : :Chapter 09
01:00:54.609 : :Chapter 10
01:07:45.686 : :Chapter 11
01:15:21.808 : :Chapter 12
01:23:31.631 : :Chapter 13



   Похожие торренты   Торрент   Размер 
В этой теме нет новых непрочитанных сообщений. Белое солнце пустыни (1969) BDRip 1080p от New-Team

510 | 79

6.57 ГБ

В этой теме нет новых непрочитанных сообщений. Белое солнце пустыни (1969) BDRip 1080p от MediaClub

135 | 74

9.31 ГБ

В этой теме нет новых непрочитанных сообщений. Белое солнце пустыни (1969) Blu-Ray 1080p

59 | 8

20.59 ГБ

В этой теме нет новых непрочитанных сообщений. Белое солнце пустыни (1969) Blu-Ray Remux 1080p

323 | 35

13.03 ГБ

В этой теме нет новых непрочитанных сообщений. Белое солнце пустыни (1969) BDRip

63 | 18

1.48 ГБ

В этой теме нет новых непрочитанных сообщений. Белое солнце пустыни (1969) BDRip-AVC

76 | 10

1.45 ГБ

В этой теме нет новых непрочитанных сообщений. Белое солнце пустыни (1969) BDRip от New-Team

271 | 19

1.46 ГБ




Вы не можете начинать темы
Вы не можете отвечать на сообщения
Вы не можете редактировать свои сообщения
Вы не можете удалять свои сообщения
Вы не можете добавлять вложения

Перейти:  
Для Мосгорсуда, Роскомнадзора и рекламодателей: mosgorsud-torrent[собачка]yandex.ru
 Вход
ppkBB3cker v.2 © 2008-2014 @ PPK
[ Time : 0.035s | 17 Queries | GZIP : On ]

Торрент трекер RUTOR.IN, Не можете зайти на rutor.org? Какой новый адрес рутор? Какое зеркало рутор? Не работает rutor.org и зеркала? Тогда наш торрент специально для вас. Rutor.in неофициальное зеркало rutor. В случае если у Вас заблокирован rutor или вдруг Вы не можете на него зайти, то Вы без труда сможете скачать бесплатно и без рекламы последние новинки кино, игр, сериалов и прочего у нас, на Rutor.in. Не нужно использовать прокси, чтобы зайти на рутор, достаточно воспользоваться нашим ресурсом. Все новые фильмы, игры, сериалы, книги и музыка за 2013 и 2014 годы через торрент бесплатно. Скачивайте фильмы в хорошем качестве, игры для пк, xbox, playstation без регистрации. У нас вы найдете новые Зарубежные сериалы и Русские сериалы 2013, 2014, 2015 годов. Оставайтесь с нами, качайте любимые фильмы, игры, сериалы, книги и музыку.