img image001 image001 image001 image001 image001 image001 image001 image001 image001 image001 image001 image001 image001 image001 image001

Planets Sun Sun Sun
Статистика раздачи
Автор: Nickolas3434 | Размер: 746.08 МБ | Добавлен: 31 мар 2014
Раздают: 124    Качают: 14
Скачать торрент
Скачать торрент
Описание торрента

СообщениеДобавлено: 31 мар 2014 

Страна: СССР
Производство: ТО Экран

Жанр: фантастика, семейный
Год выпуска: 1988
Продолжительность: 01:06:02

Перевод: не требуется
Оригинальная аудиодорожка: русский
Cубтитры: нет

Режиссер: Валентин Ховенко

В ролях:
Екатерина Прижбиляк (Алиса Селезнева), Александр Леньков (Баба Яга), Михаил Данилов (режиссёр), Людмила Артемьева (Светлана), Сергей Соколов (техник), Сергей Скрипкин (робот Поля), Владимир Балон (Ржавый Генерал)...

Описание:
По повести Кира Булычева «Миллион приключений». Московская школьница XXI века Алиса Селезнёва, снимающаяся в фильме-сказке, становится героиней необыкновенных приключений. В это время при раскопках обнаруживают старых боевых роботов, их отправляют на переплавку, но по дороге по морю, они пропадают. Оказывается, они не полностью утратили свои военные способности и смогли сбежать, высадиться на необитаемом острове и начать подготовку к захвату человечества. Отлучившись в один из дней со съёмок, Алиса попадает к ним в плен…





Исходник: DVD5 NTSC
Тип релиза: DVDRip
Контейнер: AVI

Видео: 640x480 (4:3), 23,976 fps, XviD ~ 1442 kbps avg, 0.196 bit/pixel
Аудио: 48 kHz, MP3 2.0, 128 kbps

Раздача от:
Общее
Полное имя : Ostrov.rzhavogo.generala.1988.DVDRip_[New-team]_by_AVP_Studio.avi
Формат : AVI
Формат/Информация : Audio Video Interleave
Размер файла : 746 Мбайт
Продолжительность : 1 ч. 6 м.
Общий поток : 1580 Кбит/сек
Программа кодирования : VirtualDubModRus 1.5.10.2 (build 2542/release)
Библиотека кодирования : VirtualDubMod build 2542/release

Видео
Идентификатор : 0
Формат : MPEG-4 Visual
Профиль формата : Advanced Simple@L5
Параметр BVOP формата : 1
Параметр QPel формата : Нет
Параметр GMC формата : Без точки перехода
Параметр матрицы формата : Выборочная
Идентификатор кодека : XVID
Идентификатор кодека/Подсказка : XviD
Продолжительность : 1 ч. 6 м.
Битрейт : 1442 Кбит/сек
Ширина : 640 пикселей
Высота : 480 пикселей
Соотношение сторон : 4:3
Частота кадров : 23,976 кадра/сек
Цветовое пространство : YUV
Субдискретизация насыщенности : 4:2:0
Битовая глубина : 8 бит
Тип развёртки : Прогрессивная
Метод сжатия : С потерями
Бит/(Пиксели*Кадры) : 0.196
Размер потока : 681 Мбайт (91%)
Библиотека кодирования : XviD 73

Аудио
Идентификатор : 1
Формат : MPEG Audio
Версия формата : Version 1
Профиль формата : Layer 3
Режим : Joint stereo
Расширение режима : MS Stereo
Идентификатор кодека : 55
Идентификатор кодека/Подсказка : MP3
Продолжительность : 1 ч. 6 м.
Вид битрейта : Постоянный
Битрейт : 128 Кбит/сек
Каналы : 2 канала
Частота : 48,0 КГц
Метод сжатия : С потерями
Размер потока : 60,5 Мбайт (8%)
Выравнивание : Соединение по промежуткам
Продолжительность промежутка : 42 мс. (1,00 видеокадр)
Время предзагрузки промежутка : 504 мс





   Похожие торренты   Торрент   Размер 
В этой теме нет новых непрочитанных сообщений. Остров ржавого генерала (1988) DVDRip-AVC от New-Team

101 | 25

744.33 МБ

В этой теме нет новых непрочитанных сообщений. Остров ржавого генерала (1988) SATRip

140 | 3

1.09 ГБ

В этой теме нет новых непрочитанных сообщений. Остров ржавого генерала (1988) TVRip

10 | 2

701.78 МБ

В этой теме нет новых непрочитанных сообщений. Остров ржавого генерала (1988) SATRip от UAGet

0 | 2

701.65 МБ

В этой теме нет новых непрочитанных сообщений. Корпус генерала Шубникова (1980) DVDRip-AVC от New-Team

12 | 5

1.46 ГБ

В этой теме нет новых непрочитанных сообщений. Корпус генерала Шубникова (1980) DVDRip от New-Team

10 | 19

745.14 МБ

В этой теме нет новых непрочитанных сообщений. Корпус генерала Шубникова (1980) DVDRip от New-Team

51 | 7

1.46 ГБ




Вы не можете начинать темы
Вы не можете отвечать на сообщения
Вы не можете редактировать свои сообщения
Вы не можете удалять свои сообщения
Вы не можете добавлять вложения

Перейти:  
Для Мосгорсуда, Роскомнадзора и рекламодателей: mosgorsud-torrent[собачка]yandex.ru
 Вход
ppkBB3cker v.2 © 2008-2014 @ PPK
[ Time : 0.068s | 15 Queries | GZIP : Off ]

Торрент трекер RUTOR.IN, Не можете зайти на rutor.org? Какой новый адрес рутор? Какое зеркало рутор? Не работает rutor.org и зеркала? Тогда наш торрент специально для вас. Rutor.in неофициальное зеркало rutor. В случае если у Вас заблокирован rutor или вдруг Вы не можете на него зайти, то Вы без труда сможете скачать бесплатно и без рекламы последние новинки кино, игр, сериалов и прочего у нас, на Rutor.in. Не нужно использовать прокси, чтобы зайти на рутор, достаточно воспользоваться нашим ресурсом. Все новые фильмы, игры, сериалы, книги и музыка за 2013 и 2014 годы через торрент бесплатно. Скачивайте фильмы в хорошем качестве, игры для пк, xbox, playstation без регистрации. У нас вы найдете новые Зарубежные сериалы и Русские сериалы 2013, 2014, 2015 годов. Оставайтесь с нами, качайте любимые фильмы, игры, сериалы, книги и музыку.