img image001 image001 image001 image001 image001 image001 image001 image001 image001 image001 image001 image001 image001 image001 image001

Planets Sun Sun Sun
Статистика раздачи
Автор: Nickolas3434 | Размер: 1.52 ГБ | Добавлен: 01 апр 2014
Раздают: 134    Качают: 55
Скачать торрент
Скачать торрент
Описание торрента

СообщениеДобавлено: 01 апр 2014 

Информация о фильме
Оригинальное название: Рыжик в Зазеркалье
Год выхода: 2011
Жанр: Детский, фэнтези, приключения
Режиссер: Елена Турова
В ролях: Диана Запрудская, Дмитрий Миллер, Павел Харланчук, Олег Гарбуз, Юрий Баранов, Дмитрий Пустильник

О фильме:
В сказочном королевстве Недалия злой волшебник Мортис заколдовал все зеркала. Жители Недалии не могли видеть свои отражения даже в воде, потому что сразу исчезали. Но Мортису и этого показалось мало. И зло начало проникать из сказочного в реальный мир. Победить Мортиса не просто — его может остановить человек королевских кровей. И таким человеком оказывается 12-летняя озорная девчонка Рыжик.


Страна: Беларусь
Студия: Беларусьфильм
Продолжительность: 01:55:04

Файл
Качество: DVB
Видео: MPEG-2, 1668 Кбит/с, 704x576@768x576
Звук: Русский (MP2, 2 ch, 128 Кбит/с)

Семпл


Общее
Полное имя : Ryzhik.v.zazerkale.2011.DVB.MediaClub.ts
Формат : MPEG-TS
Профиль формата : No PAT/PMT
Размер файла : 1,52 Гбайт
Продолжительность : 1 ч. 55 м.
Общий поток : 1891 Кбит/сек

Видео
Идентификатор : 204 (0xCC)
Формат : AVC
Формат/Информация : Advanced Video Codec
Профиль формата : High@L3.0
Параметр CABAC формата : Да
Параметр ReFrames формата : 3 кадра
Продолжительность : 1 ч. 55 м.
Битрейт : 1668 Кбит/сек
Ширина : 704 пикселя
Высота : 576 пикселей
Соотношение сторон : 4:3
Частота кадров : 25,000 кадров/сек
Стандарт вещания : Component
Цветовое пространство : YUV
Субдискретизация насыщенности : 4:2:0
Битовая глубина : 8 бит
Тип развёртки : Прогрессивная
Бит/(Пиксели*Кадры) : 0.165
Размер потока : 1,34 Гбайт (88%)
Основные цвета : BT.601 PAL
Характеристики трансфера : BT.470 System B, BT.470 System G
Коэффициенты матрицы : BT.601

Аудио
Идентификатор : 304 (0x130)
Формат : MPEG Audio
Версия формата : Version 1
Профиль формата : Layer 2
Продолжительность : 1 ч. 55 м.
Вид битрейта : Постоянный
Битрейт : 128 Кбит/сек
Каналы : 2 канала
Частота : 48,0 КГц
Метод сжатия : С потерями
Задержка видео : -567 мс.
Размер потока : 105 Мбайт (7%)


Релиз от:



   Похожие торренты   Торрент   Размер 
В этой теме нет новых непрочитанных сообщений. Рыжик в Зазеркалье (2011) TVRip

16 | 2

1.37 ГБ

В этой теме нет новых непрочитанных сообщений. Рыжик в Зазеркалье (2011) HDTVRip от АРХАНГЕЛ

182 | 7

2.06 ГБ

В этой теме нет новых непрочитанных сообщений. Рыжик в Зазеркалье (2010) SATRip от КинозалSAT

2 | 2

1.56 ГБ

В этой теме нет новых непрочитанных сообщений. Рыжик (1960) DVDRip

19 | 5

700.48 МБ

В этой теме нет новых непрочитанных сообщений. Кирилл Бенедиктов - Блокада. Книга Третья. Война в Зазеркалье [Проект Этногенез] (2011) (2012) MP3

45 | 4

630.95 МБ

В этой теме нет новых непрочитанных сообщений. Зазеркалье (2010) PC

17 | 3

163.6 МБ

В этой теме нет новых непрочитанных сообщений. Зазеркалье / Geoul sokeuro (2003) DVDRip

19 | 27

1.36 ГБ




Вы не можете начинать темы
Вы не можете отвечать на сообщения
Вы не можете редактировать свои сообщения
Вы не можете удалять свои сообщения
Вы не можете добавлять вложения

Перейти:  
Для Мосгорсуда, Роскомнадзора и рекламодателей: mosgorsud-torrent[собачка]yandex.ru
 Вход
ppkBB3cker v.2 © 2008-2014 @ PPK
[ Time : 0.532s | 16 Queries | GZIP : Off ]

Торрент трекер RUTOR.IN, Не можете зайти на rutor.org? Какой новый адрес рутор? Какое зеркало рутор? Не работает rutor.org и зеркала? Тогда наш торрент специально для вас. Rutor.in неофициальное зеркало rutor. В случае если у Вас заблокирован rutor или вдруг Вы не можете на него зайти, то Вы без труда сможете скачать бесплатно и без рекламы последние новинки кино, игр, сериалов и прочего у нас, на Rutor.in. Не нужно использовать прокси, чтобы зайти на рутор, достаточно воспользоваться нашим ресурсом. Все новые фильмы, игры, сериалы, книги и музыка за 2013 и 2014 годы через торрент бесплатно. Скачивайте фильмы в хорошем качестве, игры для пк, xbox, playstation без регистрации. У нас вы найдете новые Зарубежные сериалы и Русские сериалы 2013, 2014, 2015 годов. Оставайтесь с нами, качайте любимые фильмы, игры, сериалы, книги и музыку.