img image001 image001 image001 image001 image001 image001 image001 image001 image001 image001 image001 image001 image001 image001 image001

Planets Sun Sun Sun
Статистика раздачи
Автор: Nickolas3434 | Размер: 1.02 ГБ | Добавлен: 01 апр 2014
Раздают: 140    Качают: 62
Скачать торрент
Скачать торрент
Описание торрента

СообщениеДобавлено: 01 апр 2014 

Информация о фильме
Оригинальное название: Уроки в конце весны
Год выхода: 1990
Жанр: Драма
Режиссер: Олег Кавун
В ролях: Даня Толкачев, Юрий Назаров, Юрий Мажуга, Александр Феклистов, Николай Засухин, Леонид Тимцуник, Евгений Лазарев, Валерий Баринов, Валерий Носик, Елена Королёва, Екатерина Редникова, А.Смирнова

О фильме:
Вадик, пятнадцатилетний подросток, став случайным свидетелем новочеркасских событий в июне 1962 года, вызванных повышением цен на продукты питания, попадает в тюрьму. Мать ничего о нем не знает, в школе его считают погибшим. Вместе с бунтовщиками герою предстоит сидеть в тюрьме шесть месяцев…


Страна: СССР
Студия: Мосфильм
Продолжительность: 01:11:54
Язык: Русский

Файл
Кодек: XviD
Качество: SATRip
Видео: 1832 Кбит/с, 720x416, 25.000 кадр/с
Звук: (АС3, 2 ch, 192 Кбит/с)

Семпл


Общее
Полное имя : Uroki.v.konce.vesny.1990.SATRip.MediaClub.avi
Формат : AVI
Формат/Информация : Audio Video Interleave
Размер файла : 1,02 Гбайт
Продолжительность : 1 ч. 11 м.
Общий поток : 2034 Кбит/сек
Название фильма : MediaClub
Программа кодирования : VirtualDubMod 1.5.10.2 (build 2540/release)
Библиотека кодирования : VirtualDubMod build 2540/release

Видео
Идентификатор : 0
Формат : MPEG-4 Visual
Профиль формата : Advanced Simple@L5
Параметр BVOP формата : 2
Параметр QPel формата : Нет
Параметр GMC формата : Без точки перехода
Параметр матрицы формата : Default (MPEG)
Идентификатор кодека : XVID
Идентификатор кодека/Подсказка : XviD
Продолжительность : 1 ч. 11 м.
Битрейт : 1832 Кбит/сек
Ширина : 720 пикселей
Высота : 416 пикселей
Соотношение сторон : 1,731
Частота кадров : 25,000 кадров/сек
Цветовое пространство : YUV
Субдискретизация насыщенности : 4:2:0
Битовая глубина : 8 бит
Тип развёртки : Прогрессивная
Метод сжатия : С потерями
Бит/(Пиксели*Кадры) : 0.245
Размер потока : 942 Мбайт (90%)
Библиотека кодирования : XviD 65

Аудио
Идентификатор : 1
Формат : AC-3
Формат/Информация : Audio Coding 3
Расширение режима : CM (complete main)
Параметр Endianness формата : Big
Идентификатор кодека : 2000
Продолжительность : 1 ч. 11 м.
Вид битрейта : Постоянный
Битрейт : 192 Кбит/сек
Каналы : 2 канала
Расположение каналов : Front: L R
Частота : 48,0 КГц
Битовая глубина : 16 бит
Метод сжатия : С потерями
Размер потока : 98,8 Мбайт (9%)
Выравнивание : Разделение по промежуткам
Продолжительность промежутка : 40 мс. (1,00 видеокадр)
Время предзагрузки промежутка : 500 мс.


Релиз от:



   Похожие торренты   Торрент   Размер 
В этой теме нет новых непрочитанных сообщений. Футбол. Чемпионат Мира. 1990 год. Камерун - СССР (1990) SATRip от MediaClub

97 | 34

1.45 ГБ

В этой теме нет новых непрочитанных сообщений. Футбол. Чемпионат Мира. 1990 год. СССР - Румыния (1990) SATRip от MediaClub

40 | 6

1.45 ГБ

В этой теме нет новых непрочитанных сообщений. Футбол. Чемпионат Мира. 1990 год. Аргентина - СССР (1990) SATRip от MediaClub

74 | 7

1.45 ГБ

В этой теме нет новых непрочитанных сообщений. За полчаса до весны [01 из 02] (2016) HDTVRip 720p от MediaClub

3 | 0

4.65 ГБ

В этой теме нет новых непрочитанных сообщений. BBC. Борьба за выживание / Уроки выживания / Испытания жизни / BBC. The Trials of Life (1990) BDRip 1080p | P1

20 | 13

50.2 ГБ

В этой теме нет новых непрочитанных сообщений. Дом в конце времен / La casa del fin de los tiempos (2013) HDRip от MediaClub | КПК

76 | 18

460.74 МБ

В этой теме нет новых непрочитанных сообщений. Уроки тетушки Совы. Уроки хорошего поведения (2006) DVDRip

421 | 21

945.82 МБ




Вы не можете начинать темы
Вы не можете отвечать на сообщения
Вы не можете редактировать свои сообщения
Вы не можете удалять свои сообщения
Вы не можете добавлять вложения

Перейти:  
Для Мосгорсуда, Роскомнадзора и рекламодателей: mosgorsud-torrent[собачка]yandex.ru
 Вход
ppkBB3cker v.2 © 2008-2014 @ PPK
[ Time : 0.735s | 17 Queries | GZIP : Off ]

cron