img image001 image001 image001 image001 image001 image001 image001 image001 image001 image001 image001 image001 image001 image001 image001

Planets Sun Sun Sun
Статистика раздачи
Автор: Nickolas3434 | Размер: 745.48 МБ | Добавлен: 02 апр 2014
Раздают: 82    Качают: 52
Скачать торрент
Скачать торрент
Описание торрента

СообщениеДобавлено: 02 апр 2014 

Страна: СССР
Производство: Грузия-фильм

Жанр: драма, военный
Год выпуска: 1989
Продолжительность: 01:16:11

Перевод: не требуется
Оригинальная аудиодорожка: русский
Cубтитры: нет

Режиссер: Отар Коберидзе

В ролях:
Георгий Бурджанадзе, Альберт Филозов, Виктор Павлов, Рудольф Челищев, Андрей Афонко, Татьяна Говорова, Валерий Кравченко, Павел Ремезов, Бадри Кобахидзе, С. Трефилов...

Описание:
1942 год. Крайний Север. Сквозь льды, пробивая дорогу, идет ледокол — на нем практически нет оружия. Но именно ему предстоит стоять насмерть, преграждая путь немецкому крейсеру. Небольшой отряд моряков во главе с капитаном Анатолием Качарава остановил на три с лишним часа врага. Так будет провалена тщательно подготовленная фашистским командованием операция «Вундерланд» («Страна чудес»), целью которой было помешать каравану советских судов доставить в Архангельск медикаменты, продукты, обмундирование….





Исходник: DVB
Тип релиза: SATRip
Контейнер: AVI

Видео: 688x512 (4:3), 25 fps, XviD ~ 1232 kbps avg, 0.140 bit/pixel
Аудио: 48 kHz, MP3 2.0, 128 kbps

Раздача от:
Общее
Полное имя : Operaciya.Vunderland.1989.SATRip_[New-team]_by_AVP_Studio.avi
Формат : AVI
Формат/Информация : Audio Video Interleave
Размер файла : 745 Мбайт
Продолжительность : 1 ч. 16 м.
Общий поток : 1370 Кбит/сек
Программа кодирования : VirtualDubModRus 1.5.10.2 (build 2542/release)
Библиотека кодирования : VirtualDubMod build 2542/release

Видео
Идентификатор : 0
Формат : MPEG-4 Visual
Профиль формата : Advanced Simple@L5
Параметр BVOP формата : 1
Параметр QPel формата : Нет
Параметр GMC формата : Без точки перехода
Параметр матрицы формата : Выборочная
Идентификатор кодека : XVID
Идентификатор кодека/Подсказка : XviD
Продолжительность : 1 ч. 16 м.
Битрейт : 1232 Кбит/сек
Ширина : 688 пикселей
Высота : 512 пикселей
Соотношение сторон : 4:3
Частота кадров : 25,000 кадров/сек
Цветовое пространство : YUV
Субдискретизация насыщенности : 4:2:0
Битовая глубина : 8 бит
Тип развёртки : Прогрессивная
Метод сжатия : С потерями
Бит/(Пиксели*Кадры) : 0.140
Размер потока : 671 Мбайт (90%)
Библиотека кодирования : XviD 73

Аудио
Идентификатор : 1
Формат : MPEG Audio
Версия формата : Version 1
Профиль формата : Layer 3
Идентификатор кодека : 55
Идентификатор кодека/Подсказка : MP3
Продолжительность : 1 ч. 16 м.
Вид битрейта : Постоянный
Битрейт : 128 Кбит/сек
Каналы : 2 канала
Частота : 44,1 КГц
Метод сжатия : С потерями
Задержка видео : 6 мс.
Размер потока : 69,6 Мбайт (9%)
Выравнивание : Разделение по промежуткам
Продолжительность промежутка : 40 мс. (1,00 видеокадр)
Время предзагрузки промежутка : 500 мс



Сложности, с которыми столкнулась съемочная группа, это и дефицит обмундирования, реквизита военного времени и сами условия натурных съемок. Группе пришлось выезжать в Североморск, Архангельск, Мурманск и на остров Диксон. — Я лично знал Анатолия Качарава,— рассказывает О. Коберидзе.— Это был красивый человек — статный, с огромными глазами. В фильме он со всей своей командой гибнет, в действительности же Качарава попал в плен.
«Советский экран» № 4, 1989 год



   Похожие торренты   Торрент   Размер 
В этой теме нет новых непрочитанных сообщений. Операция Лазер / Laser Mission (1989) DVDRip

6 | 1

1.46 ГБ

В этой теме нет новых непрочитанных сообщений. Его батальон (1989) SATRip от New-Team

112 | 94

2.19 ГБ

В этой теме нет новых непрочитанных сообщений. Его батальон (1989) SATRip от New-Team

111 | 30

1.46 ГБ

В этой теме нет новых непрочитанных сообщений. Его батальон (1989) SATRip-AVC от New-Team

70 | 8

1.46 ГБ

В этой теме нет новых непрочитанных сообщений. Частный детектив, или Операция «Кооперация» (1989) DVDRip от Youtracker

383 | 28

1.46 ГБ

В этой теме нет новых непрочитанных сообщений. Частный детектив или операция "Кооперация" (1989) DVDRip от LTarik

28 | 9

1.37 ГБ

В этой теме нет новых непрочитанных сообщений. Операция «С новым годом» (1996) DVDRip-AVC от New-Team

200 | 17

1.46 ГБ




Вы не можете начинать темы
Вы не можете отвечать на сообщения
Вы не можете редактировать свои сообщения
Вы не можете удалять свои сообщения
Вы не можете добавлять вложения

Перейти:  
Для Мосгорсуда, Роскомнадзора и рекламодателей: mosgorsud-torrent[собачка]yandex.ru
 Вход
ppkBB3cker v.2 © 2008-2014 @ PPK
[ Time : 0.568s | 17 Queries | GZIP : Off ]

Торрент трекер RUTOR.IN, Не можете зайти на rutor.org? Какой новый адрес рутор? Какое зеркало рутор? Не работает rutor.org и зеркала? Тогда наш торрент специально для вас. Rutor.in неофициальное зеркало rutor. В случае если у Вас заблокирован rutor или вдруг Вы не можете на него зайти, то Вы без труда сможете скачать бесплатно и без рекламы последние новинки кино, игр, сериалов и прочего у нас, на Rutor.in. Не нужно использовать прокси, чтобы зайти на рутор, достаточно воспользоваться нашим ресурсом. Все новые фильмы, игры, сериалы, книги и музыка за 2013 и 2014 годы через торрент бесплатно. Скачивайте фильмы в хорошем качестве, игры для пк, xbox, playstation без регистрации. У нас вы найдете новые Зарубежные сериалы и Русские сериалы 2013, 2014, 2015 годов. Оставайтесь с нами, качайте любимые фильмы, игры, сериалы, книги и музыку.
cron