img image001 image001 image001 image001 image001 image001 image001 image001 image001 image001 image001 image001 image001 image001 image001

Planets Sun Sun Sun
Статистика раздачи
Автор: Nickolas3434 | Размер: 2.18 ГБ | Добавлен: 03 апр 2014
Раздают: 343    Качают: 268
Скачать торрент
Скачать торрент
Описание торрента

СообщениеДобавлено: 03 апр 2014 

Информация о фильме
Оригинальное название: Дубровский
Год выпуска: 2014
Жанр: Драма
Режиссер: Александр Вартанов, Кирилл Михановский
В ролях: Данила Козловский, Клавдия Коршунова, Юрий Цурило, Александр Мезенцев, Игорь Гордин, Дмитрий Поднозов, Елена Дудина, Евгений Вакунов, Артём Кобзев, Любовь Сергеева, Никита Тезин

Описание: Владимир — успешный столичный банкир и завсегдатай модных клубов, Маша – прилежная студентка юридического факультета и нежная дочь… Ничто не предвещает трагического поворота в судьбе благополучных молодых людей. Однако неожиданная ссора взбалмошных отцов заставляет детей в деталях пережить пушкинскую коллизию. Это классический сюжет криминальной драмы, который перенесен в современность и изложенный современным языком.



Страна: Россия
Студия: «ТВИНДИ»
Продолжительность: 02:05:14

Файл
Качество: DVDRip (AVC)
Видео: MPEG-4 AVC, 2040 Кбит/с, 720x564@1024x564, 25.000 кадр/с
Аудио: Русский (AC3, 6 ch, 448 Кбит/с)

Семпл




x264 [info]: frame I:1148  Avg QP:15.48  size: 52569
x264 [info]: frame P:44684 Avg QP:18.50  size: 20360
x264 [info]: frame B:142038 Avg QP:20.35  size:  6654
x264 [info]: consecutive B-frames:  3.8%  3.9% 14.4% 11.9%  9.3% 46.2%  4.7%  1.6%  1.6%  0.5%  0.4%  1.2%  0.2%  0.2%  0.3%
x264 [info]: mb I  I16..4: 14.7% 64.1% 21.2%
x264 [info]: mb P  I16..4:  5.7% 18.5%  2.4%  P16..4: 34.0% 20.1% 12.0%  0.0%  0.0%    skip: 7.3%
x264 [info]: mb B  I16..4:  0.6%  1.8%  0.2%  B16..8: 35.4%  9.6%  2.6%  direct: 8.4%  skip:41.3%  L0:41.3% L1:36.6% BI:22.1%
x264 [info]: 8x8 transform intra:68.9% inter:56.2%
x264 [info]: direct mvs  spatial:97.0% temporal:3.0%
x264 [info]: coded y,uvDC,uvAC intra: 63.8% 76.4% 49.8% inter: 24.1% 28.7% 12.5%
x264 [info]: i16 v,h,dc,p: 66%  7%  5% 23%
x264 [info]: i8 v,h,dc,ddl,ddr,vr,hd,vl,hu: 25%  8% 19%  6%  7% 10%  6% 10%  7%
x264 [info]: i4 v,h,dc,ddl,ddr,vr,hd,vl,hu: 25% 10%  8%  7% 11% 14%  8% 10%  7%
x264 [info]: i8c dc,h,v,p: 33% 21% 29% 17%
x264 [info]: Weighted P-Frames: Y:9.9% UV:6.6%
x264 [info]: ref P L0: 44.5%  9.8% 19.2%  6.7%  5.8%  3.7%  3.7%  2.1%  2.2%  1.8%  0.5%  0.0%
x264 [info]: ref B L0: 73.4% 12.5%  4.9%  2.9%  2.0%  1.8%  1.4%  0.7%  0.3%
x264 [info]: ref B L1: 94.3%  5.7%
x264 [info]: kb/s:2038.82
Общее
Уникальный идентификатор : 229203612618354605725096858725732016649 (0xAC6F029547D96D18812B65C754FB6209)
Полное имя : D:Mои раздачиDubrovskyi.2014.DVDRip.(AVC)-MediaClub.mkv
Формат : Matroska
Версия формата : Version 4 / Version 2
Размер файла : 2,18 Гбайт
Продолжительность : 2 ч. 5 м.
Общий поток : 2489 Кбит/сек
Название фильма : -=MediaClub-kaspr=-
Дата кодирования : UTC 2014-04-02 13:25:12
Программа кодирования : mkvmerge v6.1.0 ('Old Devil') built on Mar 4 2013 09:10:42
Библиотека кодирования : libebml v1.3.0 + libmatroska v1.4.0

Видео
Идентификатор : 1
Формат : AVC
Формат/Информация : Advanced Video Codec
Профиль формата : High@L4.1
Параметр CABAC формата : Да
Параметр ReFrames формата : 10 кадров
Идентификатор кодека : V_MPEG4/ISO/AVC
Продолжительность : 2 ч. 5 м.
Битрейт : 2040 Кбит/сек
Ширина : 720 пикселей
Высота : 564 пикселя
Соотношение сторон : 16:9
Режим частоты кадров : Постоянный
Частота кадров : 25,000 кадров/сек
Цветовое пространство : YUV
Субдискретизация насыщенности : 4:2:0
Битовая глубина : 8 бит
Тип развёртки : Прогрессивная
Бит/(Пиксели*Кадры) : 0.201
Размер потока : 1,74 Гбайт (80%)
Заголовок : -=MediaClub-kaspr=-
Библиотека кодирования : x264 core 142 r2409+42 04be48a tMod [8-bit@4:2:0 X86_64]
Настройки программы : cabac=1 / ref=10 / deblock=1:-3:-3 / analyse=0x3:0x113 / me=umh / subme=10 / psy=1 / fade_compensate=0.00 / psy_rd=1.00:0.20 / mixed_ref=1 / me_range=32 / chroma_me=1 / trellis=2 / 8x8dct=1 / cqm=0 / deadzone=21,11 / fast_pskip=0 / chroma_qp_offset=-3 / threads=12 / lookahead_threads=3 / sliced_threads=0 / nr=0 / decimate=0 / interlaced=0 / bluray_compat=0 / constrained_intra=0 / fgo=0 / bframes=14 / b_pyramid=2 / b_adapt=2 / b_bias=0 / direct=3 / weightb=1 / open_gop=0 / weightp=2 / keyint=250 / keyint_min=25 / scenecut=40 / intra_refresh=0 / rc=2pass / mbtree=0 / bitrate=2040 / ratetol=1.0 / qcomp=0.60 / qpmin=0:0:0 / qpmax=69:69:69 / qpstep=4 / cplxblur=20.0 / qblur=0.5 / ip_ratio=1.40 / pb_ratio=1.30 / aq=2:0.80 / aq-sensitivity=10.00 / aq-factor=1.00:1.00:1.00 / aq2=0 / aq3=0
Default : Да
Forced : Да

Аудио
Идентификатор : 2
Формат : AC-3
Формат/Информация : Audio Coding 3
Расширение режима : CM (complete main)
Параметр Endianness формата : Big
Идентификатор кодека : A_AC3
Продолжительность : 2 ч. 5 м.
Вид битрейта : Постоянный
Битрейт : 448 Кбит/сек
Каналы : 6 каналов
Расположение каналов : Front: L C R, Side: L R, LFE
Частота : 48,0 КГц
Битовая глубина : 16 бит
Метод сжатия : С потерями
Размер потока : 401 Мбайт (18%)
Язык : Russian
Default : Да
Forced : Да

Меню
00:00:00.000 : en:Chapter 01
00:01:49.840 : en:Chapter 02
00:13:59.440 : en:Chapter 03
00:29:10.960 : en:Chapter 04
00:41:35.440 : en:Chapter 05
00:57:43.120 : en:Chapter 06
01:12:43.600 : en:Chapter 07
01:31:32.560 : en:Chapter 08
01:48:03.760 : en:Chapter 09


Релиз: |



   Похожие торренты   Торрент   Размер 
В этой теме нет новых непрочитанных сообщений. Дубровский (2014) BDRip-AVC от MediaClub | Лицензия

115 | 62

2.85 ГБ

В этой теме нет новых непрочитанных сообщений. Дубровский (2014) DVDRip | Лицензия

1034 | 443

1.37 ГБ

В этой теме нет новых непрочитанных сообщений. Дубровский (2014) DVDRip | Лицензия

752 | 262

2.06 ГБ

В этой теме нет новых непрочитанных сообщений. Дубровский (2014) DVDRip от Scarabey | Лицензия

89 | 30

795.03 МБ

В этой теме нет новых непрочитанных сообщений. Дубровский (2014) DVDRip от Scarabey | Лицензия

143 | 37

2.17 ГБ

В этой теме нет новых непрочитанных сообщений. Дубровский (2014) DVDRip от Scarabey | Лицензия

232 | 82

1.45 ГБ

В этой теме нет новых непрочитанных сообщений. Дубровский (2014) DVDRip от New-Team | лицензия

841 | 352

1.46 ГБ




Вы не можете начинать темы
Вы не можете отвечать на сообщения
Вы не можете редактировать свои сообщения
Вы не можете удалять свои сообщения
Вы не можете добавлять вложения

Перейти:  
Для Мосгорсуда, Роскомнадзора и рекламодателей: mosgorsud-torrent[собачка]yandex.ru
 Вход
ppkBB3cker v.2 © 2008-2014 @ PPK
[ Time : 0.039s | 16 Queries | GZIP : Off ]

Торрент трекер RUTOR.IN, Не можете зайти на rutor.org? Какой новый адрес рутор? Какое зеркало рутор? Не работает rutor.org и зеркала? Тогда наш торрент специально для вас. Rutor.in неофициальное зеркало rutor. В случае если у Вас заблокирован rutor или вдруг Вы не можете на него зайти, то Вы без труда сможете скачать бесплатно и без рекламы последние новинки кино, игр, сериалов и прочего у нас, на Rutor.in. Не нужно использовать прокси, чтобы зайти на рутор, достаточно воспользоваться нашим ресурсом. Все новые фильмы, игры, сериалы, книги и музыка за 2013 и 2014 годы через торрент бесплатно. Скачивайте фильмы в хорошем качестве, игры для пк, xbox, playstation без регистрации. У нас вы найдете новые Зарубежные сериалы и Русские сериалы 2013, 2014, 2015 годов. Оставайтесь с нами, качайте любимые фильмы, игры, сериалы, книги и музыку.