img image001 image001 image001 image001 image001 image001 image001 image001 image001 image001 image001 image001 image001 image001 image001

Planets Sun Sun Sun
Статистика раздачи
Автор: Nickolas3434 | Размер: 1.46 ГБ | Добавлен: 06 апр 2014
Раздают: 111    Качают: 30
Скачать торрент
Скачать торрент
Описание торрента

СообщениеДобавлено: 06 апр 2014 

Страна: СССР
Производство: Беларусьфильм

Жанр: военный, драма
Год выпуска: 1989
Продолжительность: 02:11:42 (01:03:52 + 01:07:50)

Перевод: не требуется
Оригинальная аудиодорожка: русский
Cубтитры: нет

Режиссер: Александр Карпов

В ролях: Виталий Зикора, Анатолий Ведёнкин, Любовь Германова, Валерий Гатаев, Андрей Кашкер, Игорь Ленёв, Дмитрий Матвеев, Игорь Неупокоев, Борис Руднев, Валерий Филатов, Джамбул Худайбергенов, Роман Хомятов, Вадим Яковлев, Сергей Приселков, Александр Кашперов, Владимир Станкевич, Саги Ашимов, Александр Беспалый, Валерий Бусыгин, Станислав Вилькин, Владимир Гидлевский, Эдуард Горячий, Владимир Грицевский, Анатолий Гурьев, Леонид Данчишин. Владимир Марченко, Андрей Попков, Юрий Шульга, Пётр Юрченков старший, Михаил Могилевский, Игорь Николаев, Сергей Романовский, Евгений Ромашко, Сергей Чугай. Виктор Рыбчинский...

Описание: Комбат Волошин получает приказ взять высоту пока немцы еще не укрепились, но наступление «выдохлось» и высота осталась у немцев. Штурмовать высоту теперь Волошин считает самоубийством для батальона. Но командир полка приказывает батальону Волошина идти в пекло, а когда комбат противится бессмысленной гибели людей, заменяет его более послушным и исполнительным Маркиным…
Утром солдаты отправляются в бой. Силы не равны, и наших солдат неизбежно перебьют минометным огнем. Волошин принимает решение об отступлении, за которое ему придется отвечать перед командованием. Но он не боится этого, для него важнее спасти жизни своих людей…





Исходник: DVB
Тип релиза: SATRip
Контейнер: AVI

Видео: 720x528 (4:3), 25 fps, XviD ~ 1446 kbps avg, 0.152 bit/pixel
Аудио: 48 kHz, MP3 2.0, 128 kbps

Раздача от:
Общее
Полное имя : Ego.batal'on.1989.SATRip-1.46_[New-team]_by_AVP_Studio.avi
Формат : AVI
Формат/Информация : Audio Video Interleave
Размер файла : 768 Мбайт
Продолжительность : 1 ч. 7 м.
Общий поток : 1584 Кбит/сек
Программа кодирования : VirtualDubModRus 1.5.10.2 (build 2542/release)
Библиотека кодирования : VirtualDubMod build 2542/release

Видео
Идентификатор : 0
Формат : MPEG-4 Visual
Профиль формата : Advanced Simple@L5
Параметр BVOP формата : 1
Параметр QPel формата : Нет
Параметр GMC формата : Без точки перехода
Параметр матрицы формата : Выборочная
Идентификатор кодека : XVID
Идентификатор кодека/Подсказка : XviD
Продолжительность : 1 ч. 7 м.
Битрейт : 1446 Кбит/сек
Ширина : 720 пикселей
Высота : 528 пикселей
Соотношение сторон : 4:3
Частота кадров : 25,000 кадров/сек
Цветовое пространство : YUV
Субдискретизация насыщенности : 4:2:0
Битовая глубина : 8 бит
Тип развёртки : Прогрессивная
Метод сжатия : С потерями
Бит/(Пиксели*Кадры) : 0.152
Размер потока : 701 Мбайт (91%)
Библиотека кодирования : XviD 73

Аудио
Идентификатор : 1
Формат : MPEG Audio
Версия формата : Version 1
Профиль формата : Layer 3
Идентификатор кодека : 55
Идентификатор кодека/Подсказка : MP3
Продолжительность : 1 ч. 7 м.
Вид битрейта : Постоянный
Битрейт : 128 Кбит/сек
Каналы : 2 канала
Частота : 48,0 КГц
Метод сжатия : С потерями
Размер потока : 62,1 Мбайт (8%)
Выравнивание : Соединение по промежуткам
Продолжительность промежутка : 40 мс. (1,00 видеокадр)
Время предзагрузки промежутка : 504 мс.
Библиотека кодирования : LAME3.99r
Настройки программы : -m s -V 4 -q 2 -lowpass 17 -b 128





   Похожие торренты   Торрент   Размер 
В этой теме нет новых непрочитанных сообщений. Его батальон (1989) SATRip-AVC от New-Team

70 | 8

1.46 ГБ

В этой теме нет новых непрочитанных сообщений. Его батальон (1989) SATRip от New-Team

112 | 94

2.19 ГБ

В этой теме нет новых непрочитанных сообщений. Его батальон (1989) TVRip

13 | 4

1.05 ГБ

В этой теме нет новых непрочитанных сообщений. Морской батальон (1944) DVDRip-AVC от New-Team

49 | 14

1.09 ГБ

В этой теме нет новых непрочитанных сообщений. Морской батальон (1944) DVDRip от New-Team

5 | 9

1.09 ГБ

В этой теме нет новых непрочитанных сообщений. Морской батальон (1944) DVDRip от New-Team

18 | 5

744.8 МБ

В этой теме нет новых непрочитанных сообщений. Батальон ниндзя / Батальон ниндзя / Ninja The Battalion (1990) VHSRip

200 | 6

1.37 ГБ




Вы не можете начинать темы
Вы не можете отвечать на сообщения
Вы не можете редактировать свои сообщения
Вы не можете удалять свои сообщения
Вы не можете добавлять вложения

Перейти:  
Для Мосгорсуда, Роскомнадзора и рекламодателей: mosgorsud-torrent[собачка]yandex.ru
 Вход
ppkBB3cker v.2 © 2008-2014 @ PPK
[ Time : 0.029s | 15 Queries | GZIP : Off ]

Торрент трекер RUTOR.IN, Не можете зайти на rutor.org? Какой новый адрес рутор? Какое зеркало рутор? Не работает rutor.org и зеркала? Тогда наш торрент специально для вас. Rutor.in неофициальное зеркало rutor. В случае если у Вас заблокирован rutor или вдруг Вы не можете на него зайти, то Вы без труда сможете скачать бесплатно и без рекламы последние новинки кино, игр, сериалов и прочего у нас, на Rutor.in. Не нужно использовать прокси, чтобы зайти на рутор, достаточно воспользоваться нашим ресурсом. Все новые фильмы, игры, сериалы, книги и музыка за 2013 и 2014 годы через торрент бесплатно. Скачивайте фильмы в хорошем качестве, игры для пк, xbox, playstation без регистрации. У нас вы найдете новые Зарубежные сериалы и Русские сериалы 2013, 2014, 2015 годов. Оставайтесь с нами, качайте любимые фильмы, игры, сериалы, книги и музыку.