img image001 image001 image001 image001 image001 image001 image001 image001 image001 image001 image001 image001 image001 image001 image001

Planets Sun Sun Sun
Статистика раздачи
Автор: Nickolas3434 | Размер: 1.09 ГБ | Добавлен: 06 апр 2014
Раздают: 88    Качают: 5
Скачать торрент
Скачать торрент
Описание торрента

СообщениеДобавлено: 06 апр 2014 

Страна: СССР
Производство: Свердловская киностудия

Жанр: драма, военный
Год выпуска: 1989
Продолжительность: 01:15:30

Перевод: не требуется
Оригинальная аудиодорожка: русский
Cубтитры: нет

Режиссер: Георгий Кузнецов

В ролях:
Ромуальд Анцанс, Александр Данильченко, Александр Ческидов, Евгений Бунтов, Виктор Соловьев, Петр Вашчик, Сергей Иванов, Насир Соффи, Акхат Тураев, Мусо Исоев...

Описание:
Афганистан. 1986 год. От границы в сторону Кабула по горной дороге движется колонна советской военной бронетехники. С воздуха ее прикрывают боевые вертолеты. Путь колонны лежит через единственный в этих краях мост. Об этом прекрасно осведомлены афганские моджахеды и под руководством американских инструкторов готовят операцию по захвату моста и уничтожению заблокированной в этом случае советской техники.
В это время находящаяся в горах советская геологическая экспедиция подвергается ночному нападению душманов. Афганская охрана разбегается, и геологи решают уехать в Кабул. По дороге им сообщают о приближающейся военной колонне, с которой добираться до Кабула им будет значительно безопасней. Не знают они только одного, что уже давно включены моджахедами в операцию по захвату моста…





Исходник: DVD5 R5
Тип релиза: DVDRip
Контейнер: AVI

Видео: 688x512 (4:3), 25 fps, XviD ~ 1870 kbps avg, 0.212 bit/pixel
Аудио: 48 kHz, Dolby AC3 2.0, 192 kbps

Раздача от:
Общее
Полное имя : Gruz.300.1989.DVDRip_[New-team]_by_AVP_Studio.avi
Формат : AVI
Формат/Информация : Audio Video Interleave
Размер файла : 1,09 Гбайт
Продолжительность : 1 ч. 15 м.
Общий поток : 2072 Кбит/сек
Программа кодирования : VirtualDubModRus 1.5.10.2 (build 2542/release)
Библиотека кодирования : VirtualDubMod build 2542/release

Видео
Идентификатор : 0
Формат : MPEG-4 Visual
Профиль формата : Advanced Simple@L5
Параметр BVOP формата : 1
Параметр QPel формата : Нет
Параметр GMC формата : Без точки перехода
Параметр матрицы формата : Выборочная
Идентификатор кодека : XVID
Идентификатор кодека/Подсказка : XviD
Продолжительность : 1 ч. 15 м.
Битрейт : 1870 Кбит/сек
Ширина : 688 пикселей
Высота : 512 пикселей
Соотношение сторон : 4:3
Частота кадров : 25,000 кадров/сек
Цветовое пространство : YUV
Субдискретизация насыщенности : 4:2:0
Битовая глубина : 8 бит
Тип развёртки : Прогрессивная
Метод сжатия : С потерями
Бит/(Пиксели*Кадры) : 0.212
Размер потока : 1010 Мбайт (90%)
Библиотека кодирования : XviD 73

Аудио
Идентификатор : 1
Формат : AC-3
Формат/Информация : Audio Coding 3
Расширение режима : CM (complete main)
Параметр Endianness формата : Big
Идентификатор кодека : 2000
Продолжительность : 1 ч. 15 м.
Вид битрейта : Постоянный
Битрейт : 192 Кбит/сек
Каналы : 2 канала
Расположение каналов : Front: L R
Частота : 48,0 КГц
Битовая глубина : 16 бит
Метод сжатия : С потерями
Размер потока : 104 Мбайт (9%)
Выравнивание : Разделение по промежуткам
Продолжительность промежутка : 40 мс. (1,00 видеокадр)
Время предзагрузки промежутка : 500 мс





   Похожие торренты   Торрент   Размер 
В этой теме нет новых непрочитанных сообщений. Груз «300» (1989) DVDRip-AVC от New-Team

188 | 28

1.09 ГБ

В этой теме нет новых непрочитанных сообщений. Груз «300» (1989) DVDRip от New-Team

109 | 20

744.8 МБ

В этой теме нет новых непрочитанных сообщений. Груз 300 (1989) DVDRip от KinoBit

7 | 3

699.69 МБ

В этой теме нет новых непрочитанных сообщений. Груз "300" (1989) DVDRip от Русфильм

46 | 3

1.31 ГБ

В этой теме нет новых непрочитанных сообщений. Доставить по назначению / Пакет / Груз / The Package (1989) DVD-9 | D, P, A

14 | 6

5.98 ГБ

В этой теме нет новых непрочитанных сообщений. Дон Сезар де Базан (1989) DVDRip от New-Team

0 | 0

2.18 ГБ

В этой теме нет новых непрочитанных сообщений. Перед рассветом (1989) DVDRip-AVC от New-Team

103 | 10

1.09 ГБ




Вы не можете начинать темы
Вы не можете отвечать на сообщения
Вы не можете редактировать свои сообщения
Вы не можете удалять свои сообщения
Вы не можете добавлять вложения

Перейти:  
Для Мосгорсуда, Роскомнадзора и рекламодателей: mosgorsud-torrent[собачка]yandex.ru
 Вход
ppkBB3cker v.2 © 2008-2014 @ PPK
[ Time : 0.046s | 15 Queries | GZIP : Off ]

Торрент трекер RUTOR.IN, Не можете зайти на rutor.org? Какой новый адрес рутор? Какое зеркало рутор? Не работает rutor.org и зеркала? Тогда наш торрент специально для вас. Rutor.in неофициальное зеркало rutor. В случае если у Вас заблокирован rutor или вдруг Вы не можете на него зайти, то Вы без труда сможете скачать бесплатно и без рекламы последние новинки кино, игр, сериалов и прочего у нас, на Rutor.in. Не нужно использовать прокси, чтобы зайти на рутор, достаточно воспользоваться нашим ресурсом. Все новые фильмы, игры, сериалы, книги и музыка за 2013 и 2014 годы через торрент бесплатно. Скачивайте фильмы в хорошем качестве, игры для пк, xbox, playstation без регистрации. У нас вы найдете новые Зарубежные сериалы и Русские сериалы 2013, 2014, 2015 годов. Оставайтесь с нами, качайте любимые фильмы, игры, сериалы, книги и музыку.