img image001 image001 image001 image001 image001 image001 image001 image001 image001 image001 image001 image001 image001 image001 image001

Planets Sun Sun Sun
Статистика раздачи
Автор: Nickolas3434 | Размер: 1.46 ГБ | Добавлен: 05 апр 2014
Раздают: 775    Качают: 281
Скачать торрент
Скачать торрент
Описание торрента

СообщениеДобавлено: 05 апр 2014 

Информация о фильме
Оригинальное название: Стерва для чемпиона
Год выхода: 2010
Жанр: Комедия, мелодрама
Режиссер: Сергей Гинзбург
В ролях: Анастасия Цветаева, Андрей Чернышов, Александр Ильин, Александр Пашутин, Константин Мурзенко, Яна Поплавская, Алексей Дмитриев, Александр Фарбер, Михаил Полицеймако, Владимир Турчинский, Алексей Огурцов, Руслан Хабибуллов

О фильме:
Некоторые русские дядюшки, умирая, оставляют завещание своим лондонским племянницам. Так 23-летняя красавица Дженни Вольт получает в наследство крупнейший российский боксерский клуб. А в придачу — контракт на проведение боя Международной Ассоциацией Бокса (WBA). Рисковая девушка готова ввязаться в эту отнюдь не женскую авантюру. Только вот незадача — владелец конкурирующего клуба Хоркин готов на все, чтобы выманить у нее этот контракт. И первое, что он делает — уводит всю ее команду бойцов. Но Дженни не так-то просто сбить с выбранного пути! У нее в руках оказывается неожиданный козырь: молодой и никому неизвестный боксер Топазов, в котором она видит железную волю к победе и отчаянную решимость добиться успеха. Теперь их задача — как можно быстрее сделать Топазова звездой боксерского ринга. И любой ценой выиграть самый главный в их жизни приз!..


Страна: Россия
Студия: Константа Фильм
Продолжительность: 01:39:02
Язык: Русский

Файл
Кодек: XviD
Качество: SATRip
Видео: 1907 Кбит/с, 720x304, 25.000 кадр/с
Звук: (АС3, 2 ch, 192 Кбит/с)

Семпл


Общее
Полное имя : Sterva.dlja.chempiona.2010.SATRip.MediaClub.avi
Формат : AVI
Формат/Информация : Audio Video Interleave
Размер файла : 1,46 Гбайт
Продолжительность : 1 ч. 39 м.
Общий поток : 2109 Кбит/сек
Название фильма : MediaClub
Программа кодирования : VirtualDubMod 1.5.10.2 (build 2540/release)
Библиотека кодирования : VirtualDubMod build 2540/release

Видео
Идентификатор : 0
Формат : MPEG-4 Visual
Профиль формата : Advanced Simple@L5
Параметр BVOP формата : 2
Параметр QPel формата : Нет
Параметр GMC формата : Без точки перехода
Параметр матрицы формата : Default (MPEG)
Идентификатор кодека : XVID
Идентификатор кодека/Подсказка : XviD
Продолжительность : 1 ч. 39 м.
Битрейт : 1907 Кбит/сек
Ширина : 720 пикселей
Высота : 304 пикселя
Соотношение сторон : 2,35:1
Частота кадров : 25,000 кадров/сек
Цветовое пространство : YUV
Субдискретизация насыщенности : 4:2:0
Битовая глубина : 8 бит
Тип развёртки : Прогрессивная
Метод сжатия : С потерями
Бит/(Пиксели*Кадры) : 0.348
Размер потока : 1,32 Гбайт (90%)
Библиотека кодирования : XviD 65

Аудио
Идентификатор : 1
Формат : AC-3
Формат/Информация : Audio Coding 3
Расширение режима : CM (complete main)
Параметр Endianness формата : Big
Идентификатор кодека : 2000
Продолжительность : 1 ч. 39 м.
Вид битрейта : Постоянный
Битрейт : 192 Кбит/сек
Каналы : 2 канала
Расположение каналов : Front: L R
Частота : 48,0 КГц
Битовая глубина : 16 бит
Метод сжатия : С потерями
Размер потока : 136 Мбайт (9%)
Выравнивание : Разделение по промежуткам
Продолжительность промежутка : 40 мс. (1,00 видеокадр)
Время предзагрузки промежутка : 500 мс.


Релиз от:



   Похожие торренты   Торрент   Размер 
В этой теме нет новых непрочитанных сообщений. Стерва для чемпиона (2010) WP | PROPER

0 | 1

1.36 ГБ

В этой теме нет новых непрочитанных сообщений. Стерва для чемпиона (2010) HDTVRip

485 | 29

1.46 ГБ

В этой теме нет новых непрочитанных сообщений. Стерва для чемпиона (2010) WP от Semisotnik

36 | 5

706.18 МБ

В этой теме нет новых непрочитанных сообщений. Бокс. Бой за титул чемпиона мира. Виталий Кличко - Шеннон Бриггс (эфир 2010.10.17) (2010) SATRip

0 | 7

953.4 МБ

В этой теме нет новых непрочитанных сообщений. Профессиональный бокс. Флойд Мейвезер - Сауль Альварес. Бой за титул чемпиона мира по версии WBC и WBA [14.09] (2013) SATRip от MediaClub

3 | 2

3.47 ГБ

В этой теме нет новых непрочитанных сообщений. Бокс. Бой за титул Чемпиона мира в суперлёгком весе по версии WBA. Амир Хан - Маркос Майдана + андекарт (2010) SATRip

0 | 27

2.04 ГБ

В этой теме нет новых непрочитанных сообщений. Бокс. Бой за титул Чемпиона мира по версии WBA / Мигель Котто - Юрий Форман [эфир от 2010.06.06] (2010) HDTV (1080i)

0 | 2

4.2 ГБ




Вы не можете начинать темы
Вы не можете отвечать на сообщения
Вы не можете редактировать свои сообщения
Вы не можете удалять свои сообщения
Вы не можете добавлять вложения

Перейти:  
Для Мосгорсуда, Роскомнадзора и рекламодателей: mosgorsud-torrent[собачка]yandex.ru
 Вход
ppkBB3cker v.2 © 2008-2014 @ PPK
[ Time : 0.045s | 16 Queries | GZIP : Off ]

Торрент трекер RUTOR.IN, Не можете зайти на rutor.org? Какой новый адрес рутор? Какое зеркало рутор? Не работает rutor.org и зеркала? Тогда наш торрент специально для вас. Rutor.in неофициальное зеркало rutor. В случае если у Вас заблокирован rutor или вдруг Вы не можете на него зайти, то Вы без труда сможете скачать бесплатно и без рекламы последние новинки кино, игр, сериалов и прочего у нас, на Rutor.in. Не нужно использовать прокси, чтобы зайти на рутор, достаточно воспользоваться нашим ресурсом. Все новые фильмы, игры, сериалы, книги и музыка за 2013 и 2014 годы через торрент бесплатно. Скачивайте фильмы в хорошем качестве, игры для пк, xbox, playstation без регистрации. У нас вы найдете новые Зарубежные сериалы и Русские сериалы 2013, 2014, 2015 годов. Оставайтесь с нами, качайте любимые фильмы, игры, сериалы, книги и музыку.
cron