img image001 image001 image001 image001 image001 image001 image001 image001 image001 image001 image001 image001 image001 image001 image001

Planets Sun Sun Sun
Статистика раздачи
Автор: Nickolas3434 | Размер: 1.46 ГБ | Добавлен: 06 апр 2014
Раздают: 154    Качают: 36
Скачать торрент
Скачать торрент
Описание торрента

СообщениеДобавлено: 06 апр 2014 


Страна: Россия
Производство: Кинокомпания "Триикс медиа" по заказу телеканала НТВ
Жанр: Боевик, драма
Год выпуска: 2010

Продолжительность: 01:32:36

Язык: Русский

Режиссер: Андрей Щербинин

В ролях: Михаил Елисеев, Татьяна Космачева, Илья Алексеев, Дмитрий Поднозов, Владимир Крылов, Владимир Богданов, Александр Макин, Вячеслав Аркунов, Петр Харченко, Алексей Митин

Описание: В военном городе, затерянном в лесах идет своя жизнь. Городок вполне благополучен, но в нем есть все — и хорошее, и плохое. Существуют неуставные отношения, сержант Маликов третирует первогодков, об этом все знают, но лишь проводят с Маликовым «разъяснительную работу», не вынося сор из избы. Но не только Маликов «отличился». Выясняется, что Апраксин «продаёт» солдат одному из бизнесменов, строящих неподалёку свой особняк. Брагин об этом знает, но ничего не предпринимает, выжидая повод поговорить с Апраксиным.


Исходник: DVD5 R5

Тип релиза: DVDRip

Контейнер: AVI

Видео: XviD, 1795 Кбит/с, 704x384
Аудио: АС3, 6 ch, 448 Кбит/с

Общее
Полное имя : D:1АААСлужу Отечеству.avi
Формат : AVI
Формат/Информация : Audio Video Interleave
Размер файла : 1,46 Гбайт
Продолжительность : 1 ч. 32 м.
Общий поток : 2252 Кбит/сек
Программа кодирования : VirtualDubMod 1.5.10.3 | www.virtualdub-fr.org || (build 2550/release)
Библиотека кодирования : VirtualDubMod build 2550/release

Видео
Идентификатор : 0
Формат : MPEG-4 Visual
Профиль формата : Advanced Simple@L5
Параметр BVOP формата : 2
Параметр QPel формата : Нет
Параметр GMC формата : Без точки перехода
Параметр матрицы формата : Default (MPEG)
Идентификатор кодека : XVID
Идентификатор кодека/Подсказка : XviD
Продолжительность : 1 ч. 32 м.
Битрейт : 1795 Кбит/сек
Ширина : 704 пикселя
Высота : 384 пикселя
Соотношение сторон : 1,85:1
Частота кадров : 23,976 кадра/сек
Цветовое пространство : YUV
Субдискретизация насыщенности : 4:2:0
Битовая глубина : 8 бит
Тип развёртки : Прогрессивная
Метод сжатия : С потерями
Бит/(Пиксели*Кадры) : 0.277
Размер потока : 1,16 Гбайт (80%)
Библиотека кодирования : XviD 1.2.1 (UTC 2008-12-04)

Аудио
Идентификатор : 1
Формат : AC-3
Формат/Информация : Audio Coding 3
Расширение режима : CM (complete main)
Параметр Endianness формата : Big
Идентификатор кодека : 2000
Продолжительность : 1 ч. 32 м.
Вид битрейта : Постоянный
Битрейт : 448 Кбит/сек
Каналы : 6 каналов
Расположение каналов : Front: L C R, Side: L R, LFE
Частота : 48,0 КГц
Битовая глубина : 16 бит
Метод сжатия : С потерями
Размер потока : 297 Мбайт (20%)
Выравнивание : Разделение по промежуткам
Продолжительность промежутка : 42 мс. (1,00 видеокадр)
Время предзагрузки промежутка : 500 мс.



Релиз группа:
Автор рипа:



   Похожие торренты   Торрент   Размер 
В этой теме нет новых непрочитанных сообщений. Служу отечеству! (2011) SATRip

50 | 5

1.35 ГБ

В этой теме нет новых непрочитанных сообщений. Из единой любви к Отечеству (Народ, издревле нам родной) (2010) SATRip от AND01AND

0 | 1

403.66 МБ

В этой теме нет новых непрочитанных сообщений. Дмитрий Хворостовский - К Отечеству с любовью (2008) DVDRip от Generalfilm

3 | 7

1.37 ГБ

В этой теме нет новых непрочитанных сообщений. Служу Советскому Союзу! (2012) DVDRip-AVC от olegek70

12 | 3

1.45 ГБ

В этой теме нет новых непрочитанных сообщений. Служу Советскому Союзу (2012) DVDRip | КПК от Generalfilm

5 | 7

331.7 МБ

В этой теме нет новых непрочитанных сообщений. Служу Советскому Союзу! (2012) DVDRip-AVC от New-Team

10 | 6

1.45 ГБ

В этой теме нет новых непрочитанных сообщений. Служу Советскому Союзу (2012) DVDRip | Лицензия

49 | 4

744.72 МБ




Вы не можете начинать темы
Вы не можете отвечать на сообщения
Вы не можете редактировать свои сообщения
Вы не можете удалять свои сообщения
Вы не можете добавлять вложения

Перейти:  
Для Мосгорсуда, Роскомнадзора и рекламодателей: mosgorsud-torrent[собачка]yandex.ru
 Вход
ppkBB3cker v.2 © 2008-2014 @ PPK
[ Time : 0.027s | 14 Queries | GZIP : Off ]

Торрент трекер RUTOR.IN, Не можете зайти на rutor.org? Какой новый адрес рутор? Какое зеркало рутор? Не работает rutor.org и зеркала? Тогда наш торрент специально для вас. Rutor.in неофициальное зеркало rutor. В случае если у Вас заблокирован rutor или вдруг Вы не можете на него зайти, то Вы без труда сможете скачать бесплатно и без рекламы последние новинки кино, игр, сериалов и прочего у нас, на Rutor.in. Не нужно использовать прокси, чтобы зайти на рутор, достаточно воспользоваться нашим ресурсом. Все новые фильмы, игры, сериалы, книги и музыка за 2013 и 2014 годы через торрент бесплатно. Скачивайте фильмы в хорошем качестве, игры для пк, xbox, playstation без регистрации. У нас вы найдете новые Зарубежные сериалы и Русские сериалы 2013, 2014, 2015 годов. Оставайтесь с нами, качайте любимые фильмы, игры, сериалы, книги и музыку.