img image001 image001 image001 image001 image001 image001 image001 image001 image001 image001 image001 image001 image001 image001 image001

Planets Sun Sun Sun
Статистика раздачи
Автор: Nickolas3434 | Размер: 7.25 ГБ | Добавлен: 06 апр 2014
Раздают: 399    Качают: 464
Скачать торрент
Скачать торрент
Описание торрента

СообщениеДобавлено: 06 апр 2014 

Название: Легок на помине
Год выхода: 2014
Жанр: Комедия, фантастика
Выпущено: Россия / Enjoy Movies, Каропрокат, TFD Film Ukraine
Режиссер: Евгений Абызов
В ролях: Гарик Харламов, Кристина Асмус, Екатерина Васильева, Александр Ревва, Татьяна Космачева, Владимир Яглыч, Сергей Сафронов, Юрий Кузнецов, Анна Антонова, Александр Самойленко

О фильме: Молодому и успешному риелтору Павлу, провернувшему немало полулегальных сделок, необходимо получить доверенность на куплю-продажу старинного поместья. А для этого втереться в доверие к владелице недвижимости, одинокой старушке, доживающей свои дни в родовом гнезде. Разработав хитрый план, риелтор-аферист получает заветную бумагу и начинает готовить поместье к продаже, празднуя очередную победу. Но не тут-то было! В отлаженный ход событий вмешиваются высшие силы. С наступлением темноты с Павлом происходят необъяснимые события — он внезапно начинает перемещаться в пространстве…

Качество: BDRip 1080p
Видео: MPEG-4 AVC, 11,7 Мбит/с, 1920x804, 24.000 кадр/с
Аудио: Русский (AC3, 6 ch, 640 Кбит/с) [Лицензия]
Продолжительность: 01:22:16
СЕМПЛ


Общее
Уникальный идентификатор : 222647235646825536028922881780211896033 (0xA7804C3DB78B721FAED3FDB35E25CEE1)
Полное имя : D:Ljogok_na_pomine_2014_BDRip1080p_FilmRus.mkv
Формат : Matroska
Версия формата : Version 2
Размер файла : 7,25 Гбайт
Продолжительность : 1 ч. 22 м.
Режим общего битрейта : Переменный
Общий поток : 12,6 Мбит/сек
Название фильма : LNP.Title1002
Дата кодирования : UTC 2014-04-05 05:10:10
Программа кодирования : DVDFab
Библиотека кодирования : libebml v0.7.8 + libmatroska v0.8.1

Видео
Идентификатор : 1
Формат : AVC
Формат/Информация : Advanced Video Codec
Профиль формата : High@L4.0
Параметр CABAC формата : Да
Параметр ReFrames формата : 2 кадра
Идентификатор кодека : V_MPEG4/ISO/AVC
Продолжительность : 1 ч. 22 м.
Вид битрейта : Переменный
Битрейт : 11,7 Мбит/сек
Максимальный битрейт : 18,0 Мбит/сек
Ширина : 1920 пикселей
Высота : 804 пикселя
Соотношение сторон : 2,40:1
Режим частоты кадров : Постоянный
Частота кадров : 24,000 кадра/сек
Цветовое пространство : YUV
Субдискретизация насыщенности : 4:2:0
Битовая глубина : 8 бит
Тип развёртки : Прогрессивная
Бит/(Пиксели*Кадры) : 0.316
Размер потока : 6,73 Гбайт (93%)
Default : Да
Forced : Нет

Аудио
Идентификатор : 2
Формат : AC-3
Формат/Информация : Audio Coding 3
Расширение режима : CM (complete main)
Параметр Endianness формата : Big
Идентификатор кодека : A_AC3
Продолжительность : 1 ч. 22 м.
Вид битрейта : Постоянный
Битрейт : 640 Кбит/сек
Каналы : 6 каналов
Расположение каналов : Front: L C R, Side: L R, LFE
Частота : 48,0 КГц
Битовая глубина : 16 бит
Метод сжатия : С потерями
Размер потока : 377 Мбайт (5%)
Язык : Russian
Default : Да
Forced : Нет

Меню
00:00:04.000 : en:(01)00:00:04:000
00:12:24.125 : en:(02)00:12:24:125
00:20:00.083 : en:(03)00:20:00:083
00:30:56.875 : en:(04)00:30:56:875
00:39:17.666 : en:(05)00:39:17:666
00:48:54.333 : en:(06)00:48:54:333
01:00:00.000 : en:(07)01:00:00:000
01:15:38.875 : en:(08)01:15:38:875


Релиз:



   Похожие торренты   Торрент   Размер 
В этой теме нет новых непрочитанных сообщений. Легок на помине (2014) BDRip 1080p

468 | 96

4.14 ГБ

В этой теме нет новых непрочитанных сообщений. Легок на помине (2014) BDRip 1080p от ExKinoRay

627 | 317

4.77 ГБ

В этой теме нет новых непрочитанных сообщений. Легок на помине (2014) BDRip 1080p от New-Team | лицензия

319 | 214

5.85 ГБ

В этой теме нет новых непрочитанных сообщений. Легок на помине (2014) BDRemux 1080p от New-Team | лицензия

128 | 118

19.89 ГБ

В этой теме нет новых непрочитанных сообщений. Легок на помине (2014) Blu-ray 1080p от New-Team и HDCLUB | лицензия

156 | 156

21.03 ГБ

В этой теме нет новых непрочитанных сообщений. Легок на помине (2014) BDRemux 1080p от New-Team | лицензия

66 | 116

19.89 ГБ

В этой теме нет новых непрочитанных сообщений. Легок на помине (2014) BDRip-AVC | iPad

73 | 17

1.55 ГБ




Вы не можете начинать темы
Вы не можете отвечать на сообщения
Вы не можете редактировать свои сообщения
Вы не можете удалять свои сообщения
Вы не можете добавлять вложения

Перейти:  
Для Мосгорсуда, Роскомнадзора и рекламодателей: mosgorsud-torrent[собачка]yandex.ru
 Вход
ppkBB3cker v.2 © 2008-2014 @ PPK
[ Time : 0.034s | 15 Queries | GZIP : Off ]

Торрент трекер RUTOR.IN, Не можете зайти на rutor.org? Какой новый адрес рутор? Какое зеркало рутор? Не работает rutor.org и зеркала? Тогда наш торрент специально для вас. Rutor.in неофициальное зеркало rutor. В случае если у Вас заблокирован rutor или вдруг Вы не можете на него зайти, то Вы без труда сможете скачать бесплатно и без рекламы последние новинки кино, игр, сериалов и прочего у нас, на Rutor.in. Не нужно использовать прокси, чтобы зайти на рутор, достаточно воспользоваться нашим ресурсом. Все новые фильмы, игры, сериалы, книги и музыка за 2013 и 2014 годы через торрент бесплатно. Скачивайте фильмы в хорошем качестве, игры для пк, xbox, playstation без регистрации. У нас вы найдете новые Зарубежные сериалы и Русские сериалы 2013, 2014, 2015 годов. Оставайтесь с нами, качайте любимые фильмы, игры, сериалы, книги и музыку.